<?xml version="1.0" standalone="no"?>
<!DOCTYPE svg PUBLIC "-//W3C//DTD SVG 1.1//EN" "http://www.w3.org/Graphics/SVG/1.1/DTD/svg11.dtd">
<svg xmlns="http://www.w3.org/2000/svg">
<defs >
<font id="LibreFranklin" horiz-adv-x="567" ><font-face
    font-family="Libre Franklin Thin Thin"
    units-per-em="1000"
    panose-1="0 0 0 0 0 0 0 0 0 0"
    ascent="966"
    descent="-246"
    alphabetic="0" />
<glyph unicode=" " horiz-adv-x="220" />
<glyph unicode="!" horiz-adv-x="232" d="M111 10Q110 4 108 2T98 0H59Q53 0 51 3T49 11L58 71Q59 76 60 77T65 79H113Q117 79 118 77T120 70L111 10ZM117 155Q116 151 114 150T107 148H93Q89 148 87 150T85 156L156 736Q157 740 158 741T161 742H203Q206 742
207 740T209 735L117 155Z" />
<glyph unicode="&quot;" horiz-adv-x="371" d="M275 558Q274 554 272 552T265 550H247Q243 550 241 552T239 558L245 737Q246 740 247 741T251 742H314Q317 742 319 740T320 735L275 558ZM395 558Q394 554 392 552T385 550H367Q363 550 361 552T359 558L365 737Q366
740 367 741T371 742H434Q437 742 439 740T440 735L395 558Z" />
<glyph unicode="#" horiz-adv-x="603" d="M133 6Q132 2 130 1T125 0L101 4Q97 5 96 7T95 11L309 737Q311 740 312 741T316 742L339 738Q344 737 346 734T346 726L133 6ZM336 6Q335 2 333 1T328 0L304 4Q300 5 299 7T298 11L512 737Q514 740 515 741T519 742L542
738Q547 737 549 734T549 726L336 6ZM524 257Q523 253 521 252T514 250H52Q48 250 46 252T44 258L47 282Q48 286 49 287T52 288H520Q523 288 525 286T527 281L524 257ZM587 467Q586 463 584 462T577 460H114Q110 460 108 462T107 468L110 492Q111 496 112 497T115
498H583Q586 498 588 496T590 491L587 467Z" />
<glyph unicode="$" horiz-adv-x="574" d="M520 163Q513 114 482 75T403 13T294 -10Q289 -10 287 -12T283 -17L274 -86Q273 -90 272 -91T267 -93H243Q239 -93 237 -91T236 -87L246 -15Q246 -11 246 -11T243 -10Q153 -10 102 22T22 115Q20 120 20 123T24 129L41
139Q46 141 51 140T57 135Q88 85 129 59T243 33Q248 33 250 35T254 41L294 332Q296 341 291 347T277 359Q209 392 170 419T116 480T109 561Q117 615 149 656T231 723T343 752Q347 752 350 754T354 760L361 816Q362 819 363 820T367 822H391Q396 822 398 819T399
811L391 757Q391 754 391 753T395 751Q457 746 499 721T573 654Q576 652 577 649T574 641L548 624Q544 621 542 623T537 632Q517 661 480 681T395 707Q389 708 387 706T383 698L340 396Q339 389 340 387T348 382L374 370Q428 346 462 317T512 249T520 163V163ZM345
702Q346 706 344 707T338 708Q266 702 216 660T157 556Q153 528 162 504T200 457T282 407Q290 404 297 407T306 420L345 702ZM291 38Q291 35 291 34T295 33Q366 33 415 72T472 171Q480 224 452 259T351 328Q333 333 330 318L291 38V38Z" />
<glyph unicode="%" horiz-adv-x="898" d="M296 753Q344 753 377 729T425 657T430 539Q420 469 393 422T327 351T240 327Q192 327 158 351T109 424T104 543Q114 612 141 658T208 729T296 753V753ZM239 357Q279 357 311 381T366 447T395 542Q406 621 379 672T294
723Q255 723 222 699T168 633T138 538Q128 460 154 409T239 357V357ZM690 416Q738 416 771 392T819 320T824 202Q814 132 787 85T721 14T634 -10Q586 -10 552 14T504 87T499 206Q509 275 536 322T603 392T690 416V416ZM634 20Q672 20 704 44T760 111T790 205Q797
256 787 297T751 362T689 386Q651 386 618 361T563 295T533 201Q526 151 536 110T572 44T634 20V20ZM175 3Q171 -1 168 -2T159 -4H143Q136 -4 135 0T138 10L731 746Q733 750 736 750T743 750H763Q767 750 769 748T768 741L175 3Z" />
<glyph unicode="&amp;" horiz-adv-x="740" d="M381 753Q428 753 463 736T517 686T528 606Q523 569 500 533T430 464T309 399Q293 395 301 383L457 159Q461 154 463 155T472 163Q496 182 525 211T581 273T629 335T659 384Q661 388 664 388T672 387L688 380Q691
379 693 376T694 368Q680 337 648 294T575 207T496 127Q491 124 490 121T492 112Q510 93 540 76T605 49T674 39Q682 39 685 36T687 28L685 13Q684 5 681 3T669 0Q635 0 594 13T515 47T456 88Q452 91 449 90T441 84Q389 41 331 18T212 -5Q116 -5 67 48T29 189Q37
248 76 297T201 396Q213 402 215 406T209 422Q180 457 168 493T161 570Q168 622 199 663T278 729T381 753V753ZM379 714Q331 714 295 693T236 639T207 565Q203 536 210 510T239 453L259 428Q261 425 265 425T275 428Q380 474 428 517T483 612Q491 665 459 689T379
714V714ZM260 362Q255 370 249 370T233 365Q167 337 124 288T73 181Q64 114 105 74T217 33Q269 33 320 55T412 111Q420 116 422 121T421 133L260 362V362Z" />
<glyph unicode="&apos;" horiz-adv-x="235" d="M176 558Q175 554 173 552T166 550H148Q144 550 142 552T140 558L146 737Q147 740 148 741T152 742H215Q218 742 220 740T221 735L176 558Z" />
<glyph unicode="(" horiz-adv-x="268" d="M162 -165Q155 -165 154 -158Q123 -88 103 -19T77 126T83 287Q100 411 156 527T288 738Q293 742 301 742H308Q313 742 314 739T314 733Q272 668 235 594T170 441T131 282Q115 170 127 62T175 -160Q180 -165 172 -165H162V-165Z" />
<glyph unicode=")" horiz-adv-x="268" d="M-33 -165Q-37 -165 -38 -162T-39 -156Q3 -91 40 -17T105 136T144 295Q160 408 148 516T100 737Q95 742 103 742H113Q120 742 121 735Q153 665 173 596T198 451T192 290Q175 166 119 50T-13 -161Q-18 -165 -26 -165H-33V-165Z" />
<glyph unicode="*" horiz-adv-x="327" d="M215 573Q214 574 214 573T212 571L120 454Q119 453 117 454T113 456L93 471Q91 473 91 474T92 479L189 585Q190 587 190 587T188 589L83 621Q81 622 81 624T80 629L92 651Q94 653 95 653T98 652L197 614Q199 613 201
614T204 619L213 738Q214 740 215 741T220 742H250Q253 742 254 740T255 736L233 617Q233 614 234 614T236 614L349 659Q353 661 354 660T355 656L360 635Q360 631 360 630T358 628L245 590Q243 589 241 587T240 583L304 484Q306 481 306 479T302 474L279 459Q276
457 273 458T271 461L215 573Z" />
<glyph unicode="+" horiz-adv-x="541" d="M484 361Q484 357 482 356T475 354L91 353Q87 353 85 355T83 361L87 385Q88 389 89 390T92 391L481 392Q484 392 486 390T488 385L484 361ZM248 172Q244 172 242 175T240 183L293 566Q294 571 295 572T300 573H324Q328
573 330 571T331 567L278 178Q277 175 276 174T272 172H248Z" />
<glyph unicode="," horiz-adv-x="187" d="M-6 -134Q-13 -134 -8 -125L52 -11Q54 -6 53 -3T44 0H35Q31 0 30 1T29 6L38 72Q38 75 40 77T46 79H95Q102 79 100 70L92 17Q91 13 91 10T88 5L12 -127Q11 -130 9 -132T1 -134H-6V-134Z" />
<glyph unicode="-" horiz-adv-x="381" d="M309 253Q308 249 306 248T299 246L76 245Q72 245 70 247T68 253L72 279Q73 283 74 284T77 285L306 286Q309 286 311 284T313 279L309 253Z" />
<glyph unicode="." horiz-adv-x="182" d="M86 10Q85 4 83 2T73 0H34Q28 0 26 3T24 11L33 71Q34 76 35 77T40 79H88Q92 79 93 77T95 70L86 10Z" />
<glyph unicode="/" horiz-adv-x="328" d="M-23 -60Q-27 -60 -28 -58T-29 -54L334 737Q336 740 337 741T342 742H371Q376 742 377 739T376 731L17 -53Q15 -57 13 -58T6 -60H-23V-60Z" />
<glyph unicode="0" horiz-adv-x="675" d="M404 752Q467 752 515 722T590 629T618 471Q618 447 616 422T610 367Q592 239 546 156T437 31T300 -10Q237 -10 189 20T114 111T86 265Q86 289 88 315T94 369Q108 466 137 538T208 657T300 728T404 752V752ZM304 32Q366
32 418 67T508 177T563 371Q567 400 569 427T571 477Q571 599 525 654T403 710Q342 710 289 674T197 563T141 367Q137 339 135 313T133 264Q133 143 180 88T304 32V32Z" />
<glyph unicode="1" horiz-adv-x="438" d="M352 42Q361 42 359 35L354 7Q353 3 352 2T348 0H26Q22 0 21 1T20 7L24 37Q25 40 26 41T30 42H171Q177 42 178 48L267 679Q268 683 267 684T261 683L115 628Q105 625 107 634L110 657Q111 662 113 665T119 670L263 737Q271
741 275 741T286 742H313Q322 742 321 732L224 48Q223 42 228 42H352V42Z" />
<glyph unicode="2" horiz-adv-x="571" d="M307 305Q356 349 399 394T468 486T495 584Q495 627 473 654T417 696T345 710Q299 710 243 688T144 613Q139 607 133 611L110 633Q108 635 108 638T113 645Q163 701 229 726T353 752Q401 752 444 735T513 682T540 587Q540
526 513 475T437 374T327 269L84 53Q79 49 80 46T87 42H464Q474 42 472 33L469 8Q468 4 467 2T461 0H33Q21 0 22 13L24 33Q25 41 27 46T32 56T42 66L307 305Z" />
<glyph unicode="3" horiz-adv-x="624" d="M139 646Q133 654 138 659Q177 693 213 713T287 742T364 752Q462 752 517 706T573 591Q573 546 553 508T496 442T410 396Q406 395 406 393T412 388Q466 375 505 333T544 226Q544 164 510 110T410 23T247 -10Q185 -10 146
3T80 39T29 87Q24 92 28 96L54 117Q56 119 58 119T61 117Q93 71 144 52T254 32Q323 32 378 55T466 120T499 221Q499 271 471 304T397 353T302 370H212Q201 370 203 378L207 404Q207 410 215 410H288Q351 410 405 433T493 497T527 587Q527 640 483 675T365 710Q317
710 281 698T217 667T165 629Q156 622 149 632L139 646V646Z" />
<glyph unicode="4" horiz-adv-x="623" d="M466 738Q468 740 471 741T479 742H513Q522 742 521 732L455 263Q454 256 460 256H562Q567 256 569 254T572 248L568 223Q567 219 565 217T558 214H455Q447 214 446 206L419 8Q418 4 416 2T409 0H379Q372 0 373 10L401
207Q403 214 395 214H54Q45 214 46 225L51 256Q52 263 54 267T62 278L466 738V738ZM397 256Q404 256 405 264L460 658Q462 671 447 653L107 268Q101 261 102 259T107 256H397Z" />
<glyph unicode="5" horiz-adv-x="641" d="M600 742Q606 742 608 740T608 733L601 706Q600 703 598 702T591 700H235Q231 700 229 698T226 691L166 416Q165 410 167 408T173 408Q208 429 256 446T366 464Q422 464 469 446T545 387T574 282Q574 196 533 130T422
27T263 -10Q220 -10 181 -1T107 30T41 86Q37 90 37 92T40 97L59 114Q62 117 65 117T71 113Q100 82 145 56T257 30Q336 30 396 61T492 149T527 277Q527 329 504 361T443 409T360 424Q317 424 279 413T209 384T151 352Q146 351 144 351T136 353L116 369Q112 374 112
376T113 385L189 735Q190 740 192 741T202 742H600Z" />
<glyph unicode="6" horiz-adv-x="646" d="M434 752Q464 752 488 746T532 729T567 704T595 675Q598 670 593 666L568 649Q563 645 555 656Q536 682 507 696T434 710Q347 710 287 668T191 555T143 395Q142 390 142 386T141 380Q141 375 145 375T154 378Q200 398
252 417T369 436Q439 436 485 413T554 349T578 255Q578 199 557 151T499 67T412 10T306 -10Q236 -10 187 21T111 114T85 264Q85 287 87 312T93 365Q110 486 155 572T272 705T434 752V752ZM371 394Q340 394 302 387T228 368T164 340Q140 326 134 307T128 251Q128
215 138 177T169 105T226 52T311 32Q371 32 421 61T501 140T532 247Q532 309 492 351T371 394V394Z" />
<glyph unicode="7" horiz-adv-x="587" d="M595 742Q599 742 601 741T602 735L599 711Q598 706 597 700T588 686Q537 624 487 551T390 400T304 249T236 115T194 12Q193 6 190 3T182 0H151Q145 0 145 4T146 15Q167 70 203 147T288 314T400 501T536 690Q540 695 539
697T533 700H114Q111 700 110 702T109 708L116 736Q117 739 119 740T125 742H595Z" />
<glyph unicode="8" horiz-adv-x="659" d="M400 752Q460 752 505 732T574 673T599 578Q599 535 583 501T545 441T501 400T471 375Q466 371 466 368T472 361Q488 354 507 343T542 314T570 270T581 205Q581 153 559 113T498 45T406 4T291 -10Q220 -10 168 10T88 69T60
166Q60 221 82 260T137 328T205 380Q210 384 211 387T206 395Q184 410 167 425T141 462T131 519Q131 586 167 638T265 721T400 752V752ZM395 710Q333 710 283 685T205 617T176 525Q176 479 203 454T282 415L389 389Q409 384 436 399T491 442T536 507T554 581Q554
640 512 675T395 710V710ZM296 32Q367 32 421 54T505 115T536 205Q536 252 510 283T431 328L279 367Q268 370 240 356T181 314T128 247T106 162Q106 104 156 68T296 32V32Z" />
<glyph unicode="9" horiz-adv-x="641" d="M242 -10Q210 -10 184 -4T138 12T102 36T75 66Q69 73 74 76L98 91Q105 96 112 86Q133 59 164 46T244 32Q328 32 387 74T481 187T528 347Q530 362 527 364T517 364Q473 343 422 325T306 306Q237 306 191 329T122 394T99
489Q99 546 120 594T179 677T266 732T370 752Q439 752 487 721T560 628T586 479Q586 385 564 298T499 141T392 31T242 -10V-10ZM303 348Q336 348 374 356T448 378T510 409Q533 423 539 442T546 496Q546 531 536 568T505 638T450 690T366 710Q307 710 257 681T176
604T145 496Q145 435 186 392T303 348V348Z" />
<glyph unicode=":" horiz-adv-x="182" d="M145 431Q144 425 142 423T132 421H93Q87 421 85 424T83 432L92 492Q93 497 94 498T99 500H147Q151 500 153 498T154 491L145 431ZM87 13Q86 7 84 5T73 3H34Q28 3 26 6T25 14L33 74Q34 79 35 80T40 82H88Q92 82 94 80T95
73L87 13Z" />
<glyph unicode=";" horiz-adv-x="210" d="M-5 -134Q-8 -134 -9 -131T-9 -123L51 -9Q54 -4 54 -2T46 0H37Q33 0 31 2T29 8L38 74Q39 77 40 78T44 79H94Q97 79 98 77T100 72L92 15Q91 8 89 3L13 -129Q11 -132 9 -133T2 -134H-5V-134ZM93 421Q87 421 85 424T83 432L92
492Q93 497 94 498T99 500H147Q151 500 153 498T154 491L145 431Q144 425 142 423T132 421H93V421Z" />
<glyph unicode="&lt;" horiz-adv-x="523" d="M442 194Q441 186 437 184T426 184L78 330Q74 332 72 334T71 341L76 376Q76 381 78 382T84 385L473 533Q482 537 486 534T489 523L486 497Q485 493 482 491T472 485L134 358L433 230Q440 227 443 224T445 215L442 194Z" />
<glyph unicode="=" horiz-adv-x="541" d="M499 461Q498 457 496 456T489 454L105 453Q101 453 99 455T98 461L101 485Q102 489 103 490T106 491L495 492Q498 492 500 490T502 485L499 461ZM468 241Q467 237 465 236T458 234L75 233Q71 233 69 235T67 241L70 265Q71
269 72 270T75 271L464 272Q467 272 469 270T471 265L468 241Z" />
<glyph unicode="&gt;" horiz-adv-x="523" d="M64 217Q65 222 68 224T78 230L415 358L115 485Q102 491 103 499L107 525Q108 539 124 533L471 385Q475 384 477 382T478 374L473 339Q473 335 471 334T465 330L77 184Q70 181 65 184T61 196L64 217V217Z" />
<glyph unicode="?" horiz-adv-x="514" d="M239 10Q238 4 236 2T226 0H187Q182 0 179 3T177 11L186 71Q187 76 188 77T193 79H241Q245 79 246 77T248 70L239 10ZM95 621Q92 623 91 625T91 631Q131 687 196 719T331 752Q396 752 440 730T506 666T519 568Q512 515
485 475T421 400T349 330T285 253T250 156Q248 150 243 150H216Q212 150 210 153T208 161Q216 220 243 263T306 343T378 413T440 485T473 572Q482 636 443 673T330 710Q291 710 251 696T178 659T131 608Q130 607 129 607T123 607L95 621Z" />
<glyph unicode="@" horiz-adv-x="834" d="M608 -47Q556 -79 501 -96T386 -113Q295 -113 228 -84T118 -3T59 117T53 263Q64 344 103 415T202 542T339 629T503 661Q566 661 625 642T730 584T797 484T807 338Q797 262 764 204T683 114T582 81Q558 81 541 86T514 105T503
140Q503 147 501 146T493 138Q466 107 430 87T341 67Q306 67 278 89T237 151T230 245Q239 310 270 362T349 444T449 475Q490 475 518 455T559 401Q561 400 563 401T567 407L582 445Q584 448 585 448T589 449H618Q621 449 623 447T624 442L554 213Q538 163 546 144T585
124Q624 124 660 150T722 225T757 336Q768 411 749 465T691 552T602 602T500 618Q420 618 352 590T231 511T145 396T101 256Q92 192 105 134T154 30T252 -42T400 -69Q444 -69 475 -61T533 -38T586 -8Q593 -4 598 -5T605 -11L615 -27Q620 -34 617 -39T608 -47V-47ZM280
242Q271 180 289 146T348 111Q385 111 420 132T482 189T522 268Q539 325 531 361T499 414T448 431Q405 431 370 406T311 337T280 242V242Z" />
<glyph unicode="A" horiz-adv-x="700" d="M24 0Q20 0 18 3T16 10L384 732Q387 738 390 740T400 742H433Q441 742 445 739T449 731L611 9Q612 5 610 3T603 0H579Q567 0 567 9L516 232Q515 238 508 238H186Q178 238 175 230L60 6Q59 2 57 1T49 0H24V0ZM497 278Q507
278 505 289L416 679Q414 689 411 688T402 676L203 290Q200 283 200 281T204 278H497Z" />
<glyph unicode="B" horiz-adv-x="684" d="M86 0Q82 0 80 2T78 9L180 731Q181 742 191 742H394Q508 742 570 701T633 579Q633 504 593 454T478 381Q472 380 472 377T477 372Q533 362 567 326T601 227Q601 164 577 121T510 51T415 12T302 0H86V0ZM293 40Q340 40
386 47T470 73T530 127T553 221Q553 270 527 299T457 342T354 355H185Q179 355 176 353T171 345L130 49Q129 44 131 42T138 40H293ZM357 395Q421 395 472 414T554 473T585 573Q585 640 532 671T386 702H231Q227 702 224 700T220 693L180 405Q179 400 181 398T187
395H357Z" />
<glyph unicode="C" horiz-adv-x="695" d="M444 752Q506 752 557 724T640 651T670 554Q670 547 663 547L629 544Q623 544 622 554Q615 624 565 667T440 710Q373 710 322 684T235 614T177 513T144 396T133 275Q133 157 186 95T348 32Q427 32 485 70T583 188Q585
192 592 189L622 178Q628 176 625 169Q609 136 587 108T538 59T480 22T414 -2T344 -10Q261 -10 203 23T116 121T86 276Q86 340 98 407T137 536T206 647T307 724T444 752V752Z" />
<glyph unicode="D" horiz-adv-x="703" d="M87 0Q83 0 80 3T78 11L180 735Q181 739 184 740T191 742H304Q424 742 500 712T612 620T648 465Q648 315 600 212T451 54T196 0H87V0ZM194 40Q340 40 429 88T559 231T600 465Q600 555 567 606T465 679T293 701H230Q220
701 219 690L131 53Q130 45 132 43T141 40H194Z" />
<glyph unicode="E" horiz-adv-x="612" d="M180 733Q181 739 182 740T189 742H606Q613 742 611 734L608 710Q607 706 605 704T598 702H230Q225 702 223 701T220 694L179 401Q178 398 179 397T185 395H477Q481 395 482 393T482 387L478 362Q477 355 469 355H181Q172
355 171 345L130 48Q129 40 136 40H519Q524 40 526 39T527 32L524 6Q523 2 522 1T517 0H87Q77 0 78 11L180 733V733Z" />
<glyph unicode="F" horiz-adv-x="583" d="M180 732Q181 739 183 740T190 742H594Q603 742 601 734L598 710Q597 706 596 704T589 702H231Q226 702 224 700T220 692L178 391Q177 387 178 385T185 382H483Q487 382 488 381T490 375L488 351Q488 347 486 345T479
342H179Q174 342 173 340T169 332L124 6Q123 2 121 1T114 0H84Q79 0 78 2T78 11L180 732V732Z" />
<glyph unicode="G" horiz-adv-x="730" d="M336 -10Q256 -10 200 23T115 121T86 276Q86 369 108 454T176 607T287 713T440 752Q502 752 554 725T638 654T669 557Q669 550 664 549L627 543Q623 542 622 544T621 553Q620 597 597 632T533 689T439 710Q361 710 304
674T209 577T153 437T134 275Q134 157 185 95T339 32Q399 32 445 53T525 109T578 182T603 256L614 334Q615 342 605 342H416Q408 342 409 349L412 372Q413 377 417 377H653Q656 377 658 375T659 370L608 10Q607 0 596 0H579Q567 0 568 10L583 116Q584 121 582 121T575
116Q553 81 518 52T437 7T336 -10V-10Z" />
<glyph unicode="H" horiz-adv-x="725" d="M181 366Q178 366 176 364T173 359L124 8Q123 4 121 2T114 0H87Q82 0 80 3T78 11L180 733Q181 739 182 740T189 742H217Q222 742 224 740T225 731L181 414Q180 408 181 407T188 406H576Q581 406 583 408T586 415L631 734Q632
739 633 740T639 742H668Q673 742 675 740T676 731L575 9Q574 4 573 2T566 0H539Q534 0 531 2T529 10L578 360Q579 366 573 366H181Z" />
<glyph unicode="I" horiz-adv-x="274" d="M217 742Q228 742 225 731L124 11Q123 4 122 2T112 0H89Q82 0 80 2T78 11L180 733Q181 739 182 740T189 742H217Z" />
<glyph unicode="J" horiz-adv-x="399" d="M272 143Q266 96 249 62T200 9T121 -10Q78 -10 51 1T18 15Q14 17 13 19T12 25L27 55Q28 57 30 57T40 54Q51 49 72 42T124 34Q174 34 196 61T228 155L309 734Q310 739 311 740T317 742H347Q356 742 354 731L272 143V143Z" />
<glyph unicode="K" horiz-adv-x="674" d="M584 10Q590 0 583 0H544Q537 0 535 6L333 410Q331 415 329 414T321 408L169 262Q164 258 161 255T157 245L124 8Q123 4 121 2T114 0H88Q83 0 80 2T78 10L180 735Q181 739 182 740T188 742H218Q222 742 224 740T226 733L168
322Q167 318 168 318T174 323L614 737Q617 740 621 741T629 742H667Q672 742 672 739T669 733L370 450Q369 449 368 448T367 444L584 10V10Z" />
<glyph unicode="L" horiz-adv-x="587" d="M180 733Q181 742 191 742H219Q227 742 225 731L130 48Q128 40 136 40H499Q508 40 507 32L504 6Q503 2 502 1T497 0H87Q76 0 78 11L180 733V733Z" />
<glyph unicode="M" horiz-adv-x="879" d="M84 0Q79 0 78 2T78 11L180 733Q181 739 182 740T189 742H218Q222 742 223 741T226 736L401 63Q403 53 407 54T416 66L782 736Q786 742 793 742H822Q831 742 830 731L729 9Q728 4 727 2T720 0H693Q688 0 685 2T683 10L769
622Q770 626 769 626T767 624L431 10Q428 4 425 2T415 0H382Q376 0 374 2T370 11L212 620Q211 623 210 623T208 620L122 8Q121 4 119 2T112 0H84V0Z" />
<glyph unicode="N" horiz-adv-x="755" d="M698 742Q707 742 706 731L605 9Q604 0 596 0H581Q575 0 571 1T563 7L223 638Q219 646 215 645T210 636L122 8Q121 4 119 2T112 0H87Q82 0 80 3T78 11L180 733Q181 739 182 740T189 742H207Q213 742 216 741T221 734L559
104Q564 96 569 97T575 108L663 734Q664 739 665 740T671 742H698Z" />
<glyph unicode="O" horiz-adv-x="758" d="M342 -10Q260 -10 203 22T116 117T86 273Q86 296 87 320T93 369Q111 494 158 579T279 708T446 752Q527 752 584 719T671 622T701 463Q701 441 700 417T694 367Q677 244 630 160T509 33T342 -10V-10ZM346 32Q471 32 547
116T647 371Q651 398 652 423T654 470Q654 591 601 650T445 710Q321 710 243 625T140 367Q136 342 135 318T133 273Q133 152 187 92T346 32V32Z" />
<glyph unicode="P" horiz-adv-x="674" d="M178 327Q174 327 171 325T167 317L124 8Q123 4 122 2T116 0H86Q76 0 78 9L180 731Q181 737 182 739T189 742H411Q482 742 536 725T621 670T652 570Q652 489 615 435T513 354T361 327H178ZM604 572Q604 646 551 674T406
702H231Q227 702 224 700T220 693L176 379Q175 372 176 370T183 367H364Q438 367 491 390T574 458T604 572V572Z" />
<glyph unicode="Q" horiz-adv-x="758" d="M93 371Q111 496 158 581T279 709T445 752Q527 752 584 720T671 623T701 465Q701 443 700 418T694 367Q675 233 625 151T495 24Q486 19 486 12Q486 -1 503 -21T549 -57T613 -79Q618 -80 619 -82T620 -88L616 -116Q615
-120 610 -121T595 -122Q577 -122 549 -112T492 -75T438 -3Q435 2 424 -1Q405 -5 383 -7T342 -10Q262 -10 205 21T117 116T86 275Q86 297 87 321T93 371V371ZM140 365Q136 339 135 315T133 269Q133 149 187 91T344 32Q468 32 545 115T647 371Q651 397 652 421T654
468Q654 587 602 648T444 710Q318 710 241 623T140 365V365Z" />
<glyph unicode="R" horiz-adv-x="679" d="M564 13Q568 0 555 0H527Q522 0 520 3T516 10L420 346Q419 351 416 353T402 355H183Q172 355 171 343L124 10Q123 4 122 2T114 0H88Q82 0 80 3T78 10L180 733Q181 739 182 740T189 742H447Q545 742 598 704T652 589Q652
532 630 487T568 410T473 365Q469 364 467 362T465 358L564 13V13ZM363 395Q437 395 490 413T573 473T603 584Q603 644 563 673T442 702H233Q222 702 220 693L179 403Q178 399 179 397T185 395H363V395Z" />
<glyph unicode="S" horiz-adv-x="618" d="M552 629Q527 664 485 687T380 710Q321 710 274 688T199 627T171 535Q171 517 179 497T209 456T275 419L406 369Q480 341 511 302T543 210Q543 139 508 90T411 15T272 -10Q188 -10 132 20T41 115Q39 120 40 125T48 134L60
142Q66 147 70 146T79 139Q102 104 127 80T186 44T274 32Q340 32 390 50T468 107T497 205Q497 240 474 267T384 322L241 380Q175 406 150 447T125 531Q125 582 145 622T200 692T283 736T384 752Q431 752 468 740T534 707T588 654Q593 649 593 647T589 641L564 621Q562
620 560 621T552 629V629Z" />
<glyph unicode="T" horiz-adv-x="623" d="M113 736Q114 740 115 741T120 742H637Q641 742 642 740T642 734L638 710Q637 706 635 704T628 702H417Q411 702 409 700T405 692L309 9Q308 3 307 2T300 0H271Q265 0 264 2T263 11L359 690Q360 702 348 702H117Q109 702
110 710L113 736Z" />
<glyph unicode="U" horiz-adv-x="702" d="M593 229Q582 149 548 96T455 16T314 -10Q204 -10 150 37T96 183Q96 197 97 213T101 246L170 732Q171 738 172 740T178 742H206Q212 742 214 740T215 731L144 225Q143 213 142 203T141 181Q141 106 185 69T318 32Q388
32 437 54T515 120T553 230L624 734Q625 739 626 740T632 742H656Q661 742 662 740T664 732L593 229V229Z" />
<glyph unicode="V" horiz-adv-x="690" d="M700 742Q708 742 704 732L339 10Q336 4 333 2T323 0H291Q283 0 279 2T273 11L119 733Q118 742 127 742H150Q161 742 162 733L306 63Q310 45 319 61L660 736Q662 740 664 741T671 742H700V742Z" />
<glyph unicode="W" horiz-adv-x="1021" d="M1026 742Q1031 742 1032 739T1034 732L724 10Q722 4 719 2T708 0H676Q669 0 665 3T659 11L569 655Q568 658 567 658T564 655L288 10Q285 4 282 2T271 0H239Q224 0 223 11L122 733Q121 738 123 740T130 742H155Q161 742
163 740T166 733L259 72Q261 63 263 63T270 72L553 736Q555 740 557 741T566 742H591Q597 742 599 740T602 733L695 70Q697 62 699 62T706 73L989 736Q991 740 994 741T1001 742H1026V742Z" />
<glyph unicode="X" horiz-adv-x="662" d="M570 9Q573 4 573 2T567 0H531Q529 0 528 1T524 5L350 328Q346 335 343 335T334 330L66 3Q65 2 63 1T58 0H18Q14 0 14 2T18 11L311 371Q316 376 317 381T315 392L131 735Q130 738 130 740T133 742H172Q176 742 177 741T180
737L344 429Q350 419 358 429L612 739Q614 741 615 741T620 742H662Q665 742 665 740T664 735L378 384Q375 381 375 379T376 373L570 9V9Z" />
<glyph unicode="Y" horiz-adv-x="638" d="M650 742Q655 742 656 739T654 730L358 325Q355 321 354 317T351 305L309 12Q308 5 305 3T293 0H272Q265 0 264 3T263 12L303 296Q305 304 305 307T302 316L116 731Q114 736 115 739T123 742H147Q154 742 157 740T162
732L321 375Q330 354 345 375L605 734Q609 739 612 740T622 742H650V742Z" />
<glyph unicode="Z" horiz-adv-x="600" d="M27 0Q23 0 21 2T19 8L21 23Q22 28 23 31T29 40L542 696Q544 699 543 700T539 702H134Q126 702 128 710L131 737Q132 740 133 741T137 742H604Q611 742 610 735L608 718Q607 714 606 712T602 706L85 47Q79 40 86 40H505Q508
40 510 39T512 34L508 6Q507 3 506 2T501 0H27V0Z" />
<glyph unicode="[" horiz-adv-x="268" d="M57 -165Q53 -165 50 -163T48 -156L172 737Q173 740 174 741T180 742H312Q316 742 318 741T319 736L316 710Q315 707 314 706T309 705H220Q216 705 214 703T211 696L94 -123Q94 -127 94 -127T99 -128H188Q192 -128 194
-130T196 -137L193 -158Q192 -162 191 -163T185 -165H57V-165Z" />
<glyph unicode="\" horiz-adv-x="328" d="M231 -60Q222 -60 222 -51L83 733Q82 738 83 740T88 742H117Q120 742 122 740T124 735L265 -56Q265 -58 265 -59T260 -60H231V-60Z" />
<glyph unicode="]" horiz-adv-x="268" d="M-37 -165Q-41 -165 -43 -164T-44 -159L-41 -133Q-40 -130 -39 -129T-34 -128H55Q59 -128 61 -126T64 -119L181 700Q181 704 181 704T176 705H87Q83 705 81 707T79 714L82 735Q83 740 84 741T90 742H218Q223 742 225 740T227
733L103 -160Q102 -163 101 -164T95 -165H-37V-165Z" />
<glyph unicode="^" horiz-adv-x="476" d="M270 463Q269 468 266 467T261 461L90 145Q88 141 86 140T80 139H49Q45 139 44 142T44 150L237 505Q249 528 262 536T286 536T303 503L398 145Q399 141 398 139T392 137H362Q358 137 355 139T350 146L270 463Z" />
<glyph unicode="_" horiz-adv-x="501" d="M381 -94Q380 -98 378 -99T371 -101L27 -102Q23 -102 21 -100T20 -94L23 -68Q24 -64 25 -63T28 -62L377 -61Q380 -61 382 -63T384 -68L381 -94Z" />
<glyph unicode="`" horiz-adv-x="272" d="M89 747Q90 749 92 749T96 749L312 657Q314 656 315 653T316 646L307 631Q306 627 304 627T297 627L81 702Q75 704 74 707T74 715L89 747V747Z" />
<glyph unicode="a" horiz-adv-x="538" d="M382 70Q335 30 286 10T181 -10Q109 -10 69 23T28 113Q28 164 51 199T114 257T201 292T300 308L406 317Q425 319 427 333L431 364Q432 370 432 376T433 388Q433 441 398 471T303 502Q251 502 207 478T121 408Q118 405
116 405T111 407L89 422Q87 424 87 426T89 433Q127 479 182 509T307 540Q359 540 396 523T453 473T473 396Q473 389 473 382T471 366L421 9Q420 3 418 2T411 0H393Q389 0 386 2T384 10L391 71Q391 81 382 70V70ZM417 267Q418 275 416 278T406 280L316 273Q281 270
239 263T158 239T96 194T71 118Q71 75 102 52T189 28Q227 28 264 42T332 78Q364 101 382 125T404 172L417 267Z" />
<glyph unicode="b" horiz-adv-x="592" d="M66 0Q60 0 58 3T56 14L157 733Q158 738 160 740T166 742H189Q194 742 195 739T196 730L161 477Q160 467 162 467T172 475Q178 479 201 495T262 525T353 540Q419 540 459 513T519 438T538 330Q538 271 522 211T473 101T389
21T268 -10Q216 -10 184 6T135 41T113 69Q110 74 107 72T102 63L92 12Q91 5 89 3T77 0H66ZM118 176Q113 136 133 102T189 48T266 28Q323 28 365 54T437 123T480 218T495 325Q495 407 458 454T344 502Q288 502 238 476T153 414L118 176Z" />
<glyph unicode="c" horiz-adv-x="537" d="M333 540Q378 540 412 527T471 489T514 431Q517 427 517 425T514 420L489 406Q487 405 485 407T479 413Q456 446 434 465T388 493T336 502Q279 502 234 478T158 412T111 319T94 215Q94 130 139 79T265 28Q317 28 361 53T446
130Q452 136 456 131L477 116Q479 115 480 112T480 105Q458 76 433 54T379 18T321 -3T259 -10Q195 -10 149 17T77 95T52 212Q52 271 70 329T125 435T213 511T333 540V540Z" />
<glyph unicode="d" horiz-adv-x="592" d="M437 0Q432 0 429 3T427 12L435 63Q437 71 434 71T424 64Q415 56 393 38T335 5T251 -10Q165 -10 109 43T52 201Q52 259 70 318T123 428T212 509T337 540Q393 540 424 522T476 485Q485 478 488 481T493 494L527 733Q528
738 529 740T536 742H559Q567 742 567 732L465 11Q464 4 462 2T453 0H437ZM485 427Q454 463 418 482T336 502Q278 502 233 477T157 408T110 313T94 207Q94 146 116 106T176 47T258 28Q307 28 348 51T417 108T448 171L485 427Z" />
<glyph unicode="e" horiz-adv-x="577" d="M262 -10Q198 -10 151 17T78 94T52 211Q52 273 70 331T125 437T215 512T336 540Q398 540 442 516T509 445T533 331Q533 317 532 303T529 272Q528 265 523 260T510 254H104Q98 254 95 247T92 208Q92 126 140 77T264 28Q325
28 372 52T453 123Q457 127 459 127T464 124L485 109Q490 106 487 98Q459 62 425 38T350 2T262 -10V-10ZM472 290Q483 290 488 298T494 339Q494 413 450 457T333 502Q267 502 218 470T139 389T102 290H472Z" />
<glyph unicode="f" horiz-adv-x="364" d="M369 530Q371 530 373 528T374 523L371 500Q370 495 365 495H232Q225 495 223 487L156 10Q155 4 154 2T147 0H124Q120 0 118 3T116 11L183 489Q185 495 179 495H65Q62 495 61 497T59 502L63 525Q63 528 64 529T68 530H181Q185
530 187 532T190 538L202 619Q211 681 241 711T331 742H403Q406 742 408 740T409 734L406 713Q405 707 398 707H318Q281 707 265 686T243 626L230 536Q229 530 235 530H369V530Z" />
<glyph unicode="g" horiz-adv-x="582" d="M212 -175Q102 -175 47 -139T-8 -43Q-8 1 20 37T97 96Q103 99 105 101T102 107Q87 118 80 128T73 152Q73 170 84 184T113 208T148 224Q154 226 156 230T153 236Q120 256 105 282T89 343Q89 390 107 426T156 487T227 525T313
538Q373 538 406 524T459 492Q463 488 467 488T477 493Q489 501 503 509T534 524T568 530Q580 530 584 527T587 516L585 503Q584 496 581 493T568 488Q548 487 536 483T511 473Q482 458 485 449Q489 439 493 426T497 392Q497 345 479 311T430 254T358 220T273 209Q263
209 238 208T184 201T136 186T116 157Q116 141 140 134T219 123L338 116Q409 112 442 83T476 -3Q476 -41 462 -69T423 -118T364 -150T292 -169T212 -175V-175ZM211 -137Q248 -137 287 -132T359 -112T412 -71T433 -3Q433 35 411 53T333 75L162 86Q125 77 97 60T52
19T35 -37Q35 -92 83 -114T211 -137V-137ZM275 247Q323 247 364 261T432 309T458 397Q458 447 422 473T315 500Q267 500 225 484T156 434T129 347Q129 298 167 273T275 247V247Z" />
<glyph unicode="h" horiz-adv-x="576" d="M64 0Q60 0 57 3T55 10L157 734Q158 739 159 740T165 742H186Q196 742 194 733L156 466Q155 455 162 459Q205 486 237 504T300 531T367 540Q440 540 476 507T512 418Q512 412 512 406T510 392L456 9Q455 4 454 2T447 0H425Q414
0 416 10L468 378Q469 386 469 393T470 408Q470 453 445 477T364 502Q328 502 297 492T231 461T152 409L95 8Q94 4 93 2T86 0H64Z" />
<glyph unicode="i" horiz-adv-x="222" d="M95 11Q94 4 93 2T83 0H66Q59 0 57 2T55 11L127 521Q128 527 129 528T136 530H158Q163 530 165 528T167 519L95 11ZM191 659Q190 652 188 648T178 644H151Q144 644 142 648T141 659L151 730Q153 742 164 742H190Q195 742
198 738T201 728L191 659Z" />
<glyph unicode="j" horiz-adv-x="222" d="M86 -52Q78 -113 53 -141T-41 -170Q-86 -170 -97 -168T-107 -160L-104 -139Q-103 -136 -102 -135T-98 -134L-40 -133Q0 -132 20 -113T47 -45L127 521Q128 526 130 528T137 530H159Q164 530 166 527T167 519L86 -52V-52ZM191
659Q190 652 188 648T178 644H151Q144 644 142 648T141 659L151 730Q153 742 164 742H190Q195 742 198 738T201 728L191 659Z" />
<glyph unicode="k" horiz-adv-x="538" d="M467 11Q470 5 470 3T463 0H432Q428 0 426 2T421 8L280 300Q278 304 272 298L125 168Q121 164 119 160T115 151L95 11Q94 4 93 2T83 0H66Q59 0 57 2T55 11L157 733Q158 739 159 740T166 742H188Q193 742 195 740T196 731L127
233Q126 224 127 224T135 230L460 521Q466 527 469 528T478 530H510Q518 530 519 526T512 514L319 341Q316 339 315 337T314 330L467 11V11Z" />
<glyph unicode="l" horiz-adv-x="222" d="M95 11Q94 4 93 2T83 0H66Q59 0 57 2T55 11L157 733Q158 739 159 740T166 742H188Q199 742 196 731L95 11Z" />
<glyph unicode="m" horiz-adv-x="897" d="M64 0Q60 0 57 3T55 10L127 522Q128 527 129 528T135 530H156Q161 530 163 528T164 521L156 464Q155 455 161 459Q202 486 233 504T293 531T357 540Q421 540 452 512T487 452Q488 448 492 451T502 459Q543 486 574 504T635
531T698 540Q766 540 799 507T833 419Q833 412 833 406T831 392L777 9Q776 4 775 2T768 0H746Q735 0 737 10L789 378Q791 386 791 394T791 410Q791 454 769 478T695 502Q658 502 625 489T563 457T513 422Q503 415 498 409T490 392L436 9Q435 4 433 2T427 0H405Q401
0 398 3T396 10L448 378Q456 437 435 469T354 502Q320 502 290 492T228 461T152 409L95 8Q94 4 93 2T86 0H64V0Z" />
<glyph unicode="n" horiz-adv-x="576" d="M64 0Q60 0 57 3T55 10L127 522Q128 527 129 528T135 530H156Q161 530 163 528T164 521L155 459Q154 449 162 455Q215 496 264 518T367 540Q440 540 476 507T512 418Q512 412 512 406T510 392L456 9Q455 4 454 2T447 0H425Q421
0 418 3T416 10L468 378Q469 386 469 393T470 408Q470 453 445 477T364 502Q328 502 297 492T231 461T152 409L95 8Q94 4 93 2T86 0H64V0Z" />
<glyph unicode="o" horiz-adv-x="598" d="M262 -10Q197 -10 150 17T77 95T52 211Q52 282 74 342T135 446T226 515T337 540Q402 540 448 512T520 432T545 313Q545 219 507 146T405 32T262 -10V-10ZM266 28Q334 28 387 64T472 165T503 315Q503 401 459 451T335 502Q268
502 213 465T126 363T94 214Q94 129 139 79T266 28V28Z" />
<glyph unicode="p" horiz-adv-x="590" d="M40 -165Q36 -165 34 -162T32 -155L127 519Q128 526 130 528T139 530H155Q160 530 163 527T165 518L157 467Q156 461 158 461T168 466Q177 474 198 492T254 525T341 540Q427 540 482 488T537 331Q537 271 519 211T466
101T378 21T255 -10Q203 -10 169 6T116 41Q108 48 104 45T98 32L72 -156Q71 -161 70 -163T63 -165H40V-165ZM256 28Q313 28 357 53T432 121T479 216T495 323Q495 385 473 424T415 483T334 502Q284 502 243 480T175 426T145 363L107 103Q139 68 175 48T256 28V28Z"
/>
<glyph unicode="q" horiz-adv-x="593" d="M411 -165Q402 -165 403 -153L430 35Q432 46 431 47T418 40Q389 20 347 5T254 -10Q158 -10 106 50T54 210Q54 267 70 325T119 432T203 510T326 540Q382 540 413 526T460 496T481 471Q485 467 488 468T494 477L504 518Q506
526 509 528T521 530H529Q535 530 537 527T537 516L443 -156Q442 -161 440 -163T433 -165H411V-165ZM261 28Q308 28 355 49T439 106L475 354Q480 392 463 426T411 481T328 502Q272 502 229 478T157 412T112 320T96 216Q96 127 141 78T261 28V28Z" />
<glyph unicode="r" horiz-adv-x="356" d="M64 0Q60 0 57 3T55 10L127 522Q128 527 129 528T135 530H156Q161 530 163 528T164 521L154 455Q153 450 156 450T163 453Q196 486 224 505T279 532T332 540Q352 540 360 537T367 529L363 503Q363 501 363 500T360 499Q356
499 349 499T330 500Q306 500 276 489T217 458T168 414T145 364L95 8Q94 4 93 2T86 0H64V0Z" />
<glyph unicode="s" horiz-adv-x="501" d="M206 -10Q133 -10 79 21T8 103Q5 110 10 113L33 126Q36 128 38 127T42 122Q62 78 104 53T208 28Q232 28 262 34T321 53T367 89T386 144Q386 173 362 196T282 236L183 266Q119 286 96 314T72 376Q72 428 102 464T181 520T283
540Q345 540 392 516T461 446Q463 443 462 441T458 437L437 424Q435 423 433 424T428 428Q409 463 372 482T280 502Q246 502 207 490T141 453T114 387Q114 365 131 345T199 308L328 266Q378 250 403 220T428 151Q428 111 408 81T355 31T283 0T206 -10V-10Z" />
<glyph unicode="t" horiz-adv-x="358" d="M202 0Q152 0 131 19T109 81Q109 90 110 100T112 120L163 489Q164 493 163 494T158 495H65Q59 495 59 502L63 525Q63 528 64 529T68 530H162Q165 530 167 532T170 538L202 701Q203 710 212 710H226Q231 710 232 707T233
698L210 536Q209 532 210 531T215 530H354Q357 530 359 528T360 523L357 500Q356 497 356 496T351 495H212Q205 495 203 487L152 123Q151 113 150 105T149 89Q149 55 162 45T201 35H280Q284 35 286 33T288 27L285 10Q284 6 280 3Q273 2 257 2T225 1T202 0V0Z" />
<glyph unicode="u" horiz-adv-x="571" d="M210 -10Q145 -10 105 25T64 117Q64 122 64 127T65 138L119 521Q120 526 122 528T128 530H150Q155 530 157 528T159 520L108 158Q107 151 107 145T106 132Q106 78 133 53T211 28Q263 28 314 56T421 134L476 522Q477 527
479 528T485 530H507Q512 530 514 528T516 520L444 8Q443 4 442 2T436 0H415Q411 0 409 2T407 9L416 70Q417 75 415 76T408 74Q338 23 293 7T210 -10V-10Z" />
<glyph unicode="v" horiz-adv-x="530" d="M526 530Q531 530 533 527T534 520L255 10Q252 4 248 2T237 0H223Q216 0 211 3T204 11L69 521Q68 530 77 530H99Q104 530 107 528T110 521L230 67Q235 47 246 70L493 524Q497 530 504 530H526V530Z" />
<glyph unicode="w" horiz-adv-x="783" d="M774 530Q779 530 781 527T783 520L563 10Q561 4 557 2T546 0H519Q502 0 502 11L423 447Q421 455 419 454T413 445L221 10Q219 4 216 2T205 0H175Q158 0 158 11L73 521Q72 530 81 530H104Q109 530 112 528T115 521L191
66Q193 56 196 57T204 69L408 525Q410 530 417 530H440Q445 530 448 528T451 521L534 66Q536 56 539 57T546 69L744 524Q748 530 757 530H774V530Z" />
<glyph unicode="x" horiz-adv-x="515" d="M441 11Q446 4 446 2T440 0H406Q402 0 399 2T395 6L261 230Q258 235 255 234T247 228L42 4Q41 2 38 1T30 0H5Q-1 0 -4 3T0 15L228 260Q233 265 234 269T233 277L85 522Q84 525 84 527T89 530H120Q125 530 127 529T130
524L262 309Q264 305 268 305T276 311L465 526Q467 529 469 529T477 530H504Q509 530 510 527T509 521L293 280Q289 276 288 272T289 263L441 11V11Z" />
<glyph unicode="y" horiz-adv-x="508" d="M46 -165Q18 -165 1 -165T-15 -156L-13 -141Q-12 -134 -6 -132T19 -129H75Q99 -129 121 -111T161 -67T187 -12T190 36L67 517Q65 530 76 530H100Q109 530 110 523L223 79Q225 70 229 70T240 81L473 522Q475 526 477 528T484
530H508Q517 530 511 522L197 -76Q184 -101 168 -118T132 -145T92 -160T46 -165V-165Z" />
<glyph unicode="z" horiz-adv-x="458" d="M6 0Q2 0 1 2T0 8L3 29Q4 34 7 38T15 49L397 486Q401 490 401 492T396 495H96Q92 495 91 497T91 503L94 524Q95 528 97 529T102 530H446Q450 530 450 525L446 500Q445 494 443 489T435 479L54 43Q50 39 50 37T54 35H382Q389
35 387 29L384 8Q383 4 382 2T376 0H6V0Z" />
<glyph unicode="{" horiz-adv-x="267" d="M166 -165Q136 -165 116 -158T85 -138T70 -108T69 -72L102 163Q105 187 96 211T66 252T7 269Q5 269 3 271T2 276L5 303Q6 306 6 307T8 308Q65 309 98 342T138 420L171 653Q175 679 189 699T228 730T290 742H311Q315 742
317 741T318 736L315 710Q314 707 313 706T308 705H287Q264 705 249 699T225 682T214 651L182 418Q176 378 160 351T121 309T72 292Q65 291 63 289T67 285Q93 283 112 270T141 230T145 161L112 -74Q108 -102 120 -115T169 -128H188Q192 -128 194 -130T196 -137L193
-158Q192 -162 191 -163T185 -165H166V-165Z" />
<glyph unicode="|" horiz-adv-x="267" d="M63 -165Q59 -165 57 -163T55 -159L195 841Q196 844 197 845T201 847H226Q231 847 232 844T233 836L94 -158Q93 -162 92 -163T87 -165H63Z" />
<glyph unicode="}" horiz-adv-x="267" d="M-37 -165Q-41 -165 -43 -164T-44 -159L-41 -133Q-40 -130 -39 -129T-34 -128H-13Q10 -128 25 -122T49 -104T60 -74L92 159Q98 200 114 227T154 268T202 285Q209 286 211 288T207 292Q182 294 162 307T133 348T129 416L162
651Q166 680 155 692T105 705H86Q82 705 80 707T78 714L81 735Q82 740 83 741T89 742H108Q138 742 158 735T189 715T204 685T205 649L172 414Q169 390 177 366T208 325T266 308Q268 308 270 306T271 301L268 274Q267 271 267 270T265 269Q208 268 176 235T136 157L103
-76Q100 -102 86 -122T46 -153T-16 -165H-37V-165Z" />
<glyph unicode="~" horiz-adv-x="542" d="M489 370Q478 360 451 348T379 335Q349 335 327 341T285 357T246 372T200 379Q162 379 137 367T94 339Q90 336 88 337T85 344L80 363Q79 367 79 369T81 373Q103 389 130 402T197 416Q224 416 246 409T290 394T333 378T381
371Q419 371 440 383T475 408Q480 411 482 410T486 403L492 382Q494 378 489 370V370Z" />
<glyph unicode="&#xa0;" horiz-adv-x="220" />
<glyph unicode="&#xa1;" horiz-adv-x="232" d="M174 458Q173 454 172 453T167 451H119Q116 451 114 453T113 461L121 521Q122 526 123 528T131 530H170Q178 530 181 527T183 518L174 458V458ZM83 -160Q83 -162 82 -163T78 -165H36Q34 -165 32 -163T31 -157L116
376Q116 380 117 381T123 382H137Q142 382 145 380T147 373L83 -160V-160Z" />
<glyph unicode="&#xa2;" horiz-adv-x="558" d="M269 12Q268 5 266 3T256 0H240Q233 0 231 3T229 13L243 113Q243 118 245 119T252 121H276Q281 121 282 119T283 112L269 12V12ZM357 633Q356 626 353 624T343 621H327Q320 621 318 624T316 634L330 734Q331 739
333 740T339 742H363Q368 742 369 740T371 733L357 633V633ZM311 651Q356 651 390 638T449 600T492 542Q495 538 495 536T492 531L467 517Q465 516 463 518T457 524Q434 557 412 576T366 604T314 613Q257 613 212 589T136 523T89 430T72 326Q72 241 117 190T243
139Q295 139 339 164T424 241Q430 247 434 242L455 227Q457 226 458 223T458 216Q436 187 411 165T357 129T299 108T237 101Q173 101 127 128T55 206T30 323Q30 382 48 440T103 546T191 622T311 651V651Z" />
<glyph unicode="&#xa3;" horiz-adv-x="597" d="M-16 0Q-20 0 -22 2T-24 9L-21 33Q-20 37 -19 38T-14 39H21Q61 38 96 81T145 216Q149 242 150 277T152 355Q151 357 151 357T148 358H55Q53 358 51 360T50 365L54 391Q54 394 55 395T58 396H142Q145 396 148 398T151
403L142 474Q135 538 151 589T200 676T276 732T368 752Q410 752 445 738T504 703T533 657Q535 654 534 654T528 651L504 640Q500 639 497 640T493 645Q480 675 451 692T368 709Q324 709 285 692T220 643T187 565Q181 522 184 475T191 401Q195 397 197 397H368Q371
397 372 395T374 391L370 364Q369 361 368 360T364 359H204Q200 359 197 357T194 350Q196 322 196 293T190 230Q182 174 167 136T136 76T111 45Q108 42 107 41T110 40H321Q375 40 414 58T477 119Q480 121 483 122T488 122L509 113Q511 112 513 110T514 103Q483
51 434 26T318 0H-16V0Z" />
<glyph unicode="&#xa4;" horiz-adv-x="513" d="M248 204Q220 204 197 212T155 236Q151 238 148 238T142 233L96 192Q90 188 86 189T77 194L68 206Q64 211 64 215T68 223L114 263Q121 271 118 280Q108 300 103 324T102 375Q107 402 118 427T146 473Q152 479 149
484L114 524Q110 529 110 533T115 543L128 554Q134 559 137 558T144 552L180 511Q182 509 184 509T191 512Q214 526 240 533T292 541Q319 541 342 533T383 509Q388 507 391 508T398 512L450 558Q454 561 457 560T463 556L478 539Q480 535 480 533T478 527L424 480Q418
474 420 468Q431 449 436 424T438 371Q434 345 424 321T396 276Q393 273 391 270T393 263L432 218Q435 214 435 211T433 205L413 188Q410 185 407 186T402 190L364 235Q360 238 357 238T352 235Q328 220 302 212T248 204V204ZM253 248Q289 248 320 266T372 313T397
375Q402 408 390 436T353 481T292 498Q256 498 225 480T173 434T147 371Q143 339 155 311T192 265T253 248V248Z" />
<glyph unicode="&#xa5;" horiz-adv-x="578" d="M616 742Q621 742 623 739T622 730L330 333Q326 329 325 325T322 313L279 12Q278 5 275 3T264 0H245Q238 0 235 3T233 12L274 300Q275 308 275 311T273 320L88 731Q86 736 87 739T96 742H123Q130 742 133 740T138
732L296 374Q301 365 304 365T313 375L577 734Q582 740 584 741T594 742H616V742ZM481 306Q480 302 478 301T471 299L123 298Q119 298 117 300T115 306L118 330Q119 334 120 335T123 336L477 337Q480 337 482 335T484 330L481 306ZM461 166Q460 162 458 161T451
159L103 158Q99 158 97 160T95 166L98 190Q99 194 100 195T103 196L457 197Q460 197 462 195T464 190L461 166Z" />
<glyph unicode="&#xa6;" horiz-adv-x="267" d="M148 443Q144 443 142 445T141 449L195 841Q196 844 197 845T201 847H226Q231 847 232 844T233 836L179 450Q178 446 177 445T172 443H148ZM63 -165Q59 -165 57 -163T55 -159L110 233Q110 236 111 237T115 239H140Q145
239 147 236T148 228L94 -158Q93 -162 92 -163T87 -165H63Z" />
<glyph unicode="&#xa7;" horiz-adv-x="477" d="M322 194Q364 168 386 137T403 62Q398 25 371 -4T301 -51T205 -68Q143 -68 91 -37T17 46Q16 48 16 49T16 52L42 67Q45 69 47 68T51 63Q71 23 112 -2T210 -28Q269 -28 311 -4T360 66Q365 96 345 123T259 178L166 216Q108
240 86 276T71 355Q77 402 114 435T200 486Q157 509 137 531T111 577T109 625Q114 661 140 690T208 735T302 752Q362 752 404 724T467 658Q469 657 469 655T467 651L445 638Q441 636 438 637T434 641Q414 672 382 692T306 712Q239 712 199 688T152 623Q149 598
164 572T238 520L323 483Q394 452 420 412T440 322Q433 270 398 241T322 194V194ZM265 222Q294 220 322 233T371 269T395 320Q399 345 395 365T372 403T315 437L254 463Q221 460 191 444T140 404T115 354Q111 323 126 301T198 252L265 222V222Z" />
<glyph unicode="&#xa8;" horiz-adv-x="181" d="M115 655Q114 648 112 646T102 644H75Q68 644 66 646T65 655L76 733Q77 739 78 740T85 742H117Q122 742 124 740T125 731L115 655ZM226 655Q225 648 223 646T213 644H186Q179 644 177 646T176 655L187 733Q188 739
189 740T196 742H228Q233 742 235 740T236 731L226 655Z" />
<glyph unicode="&#xa9;" horiz-adv-x="830" d="M378 -10Q299 -10 234 19T123 101T58 223T49 373Q60 451 99 520T197 641T329 722T481 752Q560 752 625 722T736 640T801 518T811 369Q800 290 761 221T662 100T529 19T378 -10V-10ZM381 34Q448 34 512 58T629 126T719
233T766 373Q777 448 759 510T699 616T602 685T479 709Q411 709 347 685T229 615T141 508T94 369Q83 293 101 231T159 125T256 58T381 34V34ZM461 590Q497 590 523 578T570 545T605 497Q607 495 606 494T605 491L576 475Q574 474 572 475T568 481Q549 516 522 533T463
551Q419 551 382 529T321 466T288 373Q278 295 311 247T409 198Q450 198 486 220T547 279Q549 281 552 280T557 277L575 265Q578 263 578 256Q560 234 540 216T498 185T453 166T404 159Q348 159 309 186T252 262T244 375Q253 438 284 486T361 562T461 590V590Z"
/>
<glyph unicode="&#xaa;" horiz-adv-x="405" d="M256 749Q296 749 322 735T360 695T366 633L343 471Q341 456 341 446T343 417Q345 414 344 413T340 411H315Q311 411 309 412T306 418L305 456Q305 460 304 459T298 454Q268 429 241 417T180 405Q128 405 101 430T80
498Q87 545 130 571T253 605L315 611Q320 612 323 614T328 621L331 639Q336 678 316 696T251 715Q219 715 195 704T147 663Q146 662 144 662T139 663L116 674Q116 675 116 677T116 682Q138 714 174 731T256 749V749ZM118 495Q114 469 133 453T189 437Q213 437 234
445T275 471Q292 483 302 496T314 522L321 571Q322 576 321 578T313 579L263 575Q217 572 186 562T139 535T118 495V495Z" />
<glyph unicode="&#xab;" horiz-adv-x="421" d="M343 82Q345 79 344 79T338 78H326Q323 78 321 80T318 83L204 251Q202 255 201 258T203 264L368 442Q370 445 371 445T375 445H389Q392 445 395 443T395 436L256 262Q254 259 253 256T253 250L343 82ZM176 82Q178
79 177 79T171 78H159Q156 78 154 80T151 83L37 251Q35 255 34 258T36 264L201 442Q203 445 204 445T208 445H222Q225 445 228 443T228 436L89 262Q87 259 86 256T86 250L176 82Z" />
<glyph unicode="&#xac;" horiz-adv-x="541" d="M484 361Q484 357 482 356T475 354L91 353Q87 353 85 355T83 361L87 385Q88 389 89 390T92 391L481 392Q484 392 486 390T488 385L484 361ZM465 221Q464 217 463 216T458 214H435Q431 214 429 216T428 220L449 379Q450
382 451 383T455 385H479Q484 385 485 382T486 374L465 221Z" />
<glyph unicode="&#xad;" horiz-adv-x="381" d="M528 253Q527 249 525 248T518 246L295 245Q291 245 289 247T287 253L291 279Q292 283 293 284T296 285L525 286Q528 286 530 284T532 279L528 253Z" />
<glyph unicode="&#xae;" horiz-adv-x="545" d="M276 275Q209 275 159 307T85 394T69 515Q79 581 118 634T215 720T339 752Q405 752 455 720T530 633T546 511Q537 446 497 392T399 307T276 275V275ZM277 310Q337 310 386 335T469 406T510 515Q519 576 500 621T439
692T339 717Q279 717 229 692T147 620T105 511Q92 419 140 365T277 310V310ZM373 397Q373 395 373 394T370 393H346Q345 393 344 394T343 397L316 505Q315 507 316 507T310 507H254Q252 507 251 506T248 502L233 396Q233 394 233 394T231 393H208Q206 393 205 394T205
397L237 627Q237 629 237 629T238 630H338Q373 630 391 615T405 570Q401 541 384 528T349 510Q348 510 346 509T345 507L373 397V397ZM318 535Q338 535 354 542T374 570Q376 583 368 592T326 602H267Q265 602 264 602T262 598L253 537Q253 536 253 536T255 535H318V535Z"
/>
<glyph unicode="&#xaf;" horiz-adv-x="272" d="M322 691Q321 687 320 686T312 684H77Q73 684 71 686T70 693L73 716Q74 719 75 720T78 722H320Q322 722 324 720T325 715L322 691Z" />
<glyph unicode="&#xb0;" horiz-adv-x="464" d="M444 706Q438 663 414 630T354 577T275 558Q231 558 200 577T154 631T145 710Q151 754 174 787T234 839T313 858Q357 858 388 839T435 785T444 706V706ZM401 709Q409 758 385 788T310 819Q260 819 225 787T184 705Q178
656 202 625T275 594Q325 594 359 626T401 709V709Z" />
<glyph unicode="&#xb1;" horiz-adv-x="541" d="M447 91Q446 87 444 86T437 84L53 83Q49 83 47 85T46 91L49 115Q50 119 51 120T54 121L443 122Q446 122 448 120T450 115L447 91ZM494 431Q493 427 491 426T484 424L101 423Q97 423 95 425T93 431L97 455Q97 459
98 460T102 461L491 462Q494 462 496 460T498 455L494 431ZM258 242Q254 242 252 245T250 253L303 636Q304 641 305 642T310 643H334Q338 643 340 641T341 637L287 248Q286 245 285 244T281 242H258Z" />
<glyph unicode="&#xb2;" horiz-adv-x="452" d="M191 576Q222 604 249 632T292 690T309 751Q309 792 280 811T215 831Q187 831 151 817T89 770Q85 765 82 768L67 782Q65 784 69 790Q101 825 142 841T220 857Q250 857 277 847T321 813T338 753Q338 715 321 683T273
619T204 553L51 417Q47 415 48 413T53 410H290Q296 410 295 405L293 389Q292 387 292 386T288 384H19Q11 384 12 392L13 405Q14 413 16 417T24 426L191 576Z" />
<glyph unicode="&#xb3;" horiz-adv-x="467" d="M95 790Q94 792 94 794T95 799Q132 831 165 844T237 857Q299 857 333 829T368 756Q368 713 341 681T266 633Q263 632 263 631T267 628Q301 620 325 594T350 526Q350 487 329 453T266 399T163 378Q124 378 100 386T58
409T26 439Q24 442 26 444L42 458Q44 460 46 458Q66 429 98 417T168 404Q233 404 277 436T322 523Q322 555 304 575T258 606T198 617H141Q134 617 136 622L138 638Q138 642 143 642H189Q229 642 263 656T318 696T339 753Q339 787 312 809T238 831Q192 831 163 814T112
780Q106 775 102 782L95 790V790Z" />
<glyph unicode="&#xb4;" horiz-adv-x="272" d="M324 715Q325 711 324 709T317 704L79 627Q75 626 72 627T69 633L65 648Q64 656 68 657L310 751Q312 752 315 751T318 747L324 715Z" />
<glyph unicode="&#xb5;" horiz-adv-x="571" d="M212 28Q262 28 313 56T421 134L476 522Q477 527 479 528T485 530H507Q512 530 514 528T516 520L444 8Q443 4 442 2T436 0H415Q411 0 409 2T407 9L416 74Q417 79 416 79T410 74Q365 43 332 25T270 -2T212 -10Q174
-10 145 1T92 38L64 -154Q63 -161 62 -163T52 -165H35Q28 -165 26 -163T24 -154L119 521Q120 526 122 528T128 530H150Q155 530 157 528T159 520L105 136Q101 107 114 83T153 43T212 28V28Z" />
<glyph unicode="&#xb6;" horiz-adv-x="534" d="M458 710Q457 710 455 708T452 704L341 -81Q341 -82 341 -83T338 -85H313Q310 -85 309 -83T308 -79L418 707Q418 709 418 709T415 710H380Q378 710 376 708T374 704L263 -81Q263 -83 262 -84T259 -85H234Q232 -85
230 -84T229 -79L282 302Q282 303 282 303T281 304Q209 304 165 334T102 414T91 516Q99 572 131 623T220 708T354 742H512Q514 742 515 741T516 737L513 712Q512 710 512 710T510 710H458Z" />
<glyph unicode="&#xb7;" horiz-adv-x="172" d="M138 344Q137 338 135 336T125 334H66Q60 334 58 337T56 345L65 405Q66 410 67 411T72 413H140Q144 413 145 411T147 404L138 344Z" />
<glyph unicode="&#xb8;" horiz-adv-x="196" d="M130 -131Q125 -168 94 -186T22 -204Q0 -204 -17 -198T-48 -182Q-50 -182 -51 -180T-53 -176L-40 -156Q-39 -154 -38 -155T-34 -158Q-26 -165 -15 -169T18 -174Q50 -174 67 -163T87 -129Q90 -106 73 -95T18 -83Q14
-83 13 -81T12 -78L60 5H94L62 -56Q61 -57 61 -57T63 -58Q93 -61 108 -72T128 -98T130 -131V-131Z" />
<glyph unicode="&#xb9;" horiz-adv-x="367" d="M206 406Q211 406 211 402L208 384Q207 380 204 380H1Q-3 380 -2 384L0 403Q1 406 4 406H93Q95 406 97 410L153 807Q155 812 149 810L57 775Q52 773 52 779L54 793Q55 796 56 798T60 801L150 844Q155 846 158 846T165
847H182Q188 847 187 840L126 410Q124 406 128 406H206V406Z" />
<glyph unicode="&#xba;" horiz-adv-x="419" d="M275 751Q324 751 355 729T400 668T407 575Q400 526 377 488T318 429T231 407Q181 407 150 429T106 490T100 579Q108 631 131 669T192 729T275 751V751ZM274 716Q218 716 184 678T141 578Q132 515 154 478T232 440Q288
440 322 479T367 582Q375 641 352 678T274 716V716Z" />
<glyph unicode="&#xbb;" horiz-adv-x="420" d="M161 252Q164 255 165 258T165 264L75 438Q74 442 75 443T79 445H93Q96 445 100 440L215 262Q217 259 217 256T214 249L51 81Q50 80 49 79T44 78H32Q28 78 26 79T24 84L161 252V252ZM328 252Q331 255 332 258T332
264L242 438Q241 442 242 443T246 445H260Q263 445 267 440L382 262Q384 259 384 256T381 249L218 81Q217 80 216 79T211 78H199Q195 78 193 79T191 84L328 252V252Z" />
<glyph unicode="&#xbc;" horiz-adv-x="860" d="M255 302Q260 302 260 298L257 280Q256 276 253 276H50Q46 276 47 280L49 299Q50 302 53 302H142Q144 302 146 306L202 703Q204 708 198 706L106 671Q101 669 101 675L103 689Q104 692 105 694T109 697L199 740Q204
742 207 742T214 743H231Q237 743 236 736L175 306Q173 302 177 302H255V302ZM170 3Q166 -1 163 -2T154 -4H138Q131 -4 130 0T133 10L726 746Q728 750 731 750T738 750H758Q762 750 764 748T763 741L170 3ZM697 464Q699 466 700 466T705 467H727Q732 467 732 460L690
165Q690 161 693 161H757Q764 161 764 156L761 140Q761 137 760 136T755 135H690Q685 135 685 130L668 5Q667 2 666 1T661 0H642Q638 0 639 6L656 130Q658 135 652 135H438Q432 135 433 142L436 161Q437 166 438 168T443 175L697 464V464ZM654 161Q658 161 659
166L693 414Q694 417 692 417T685 411L471 169Q464 161 471 161H654Z" />
<glyph unicode="&#xbd;" horiz-adv-x="923" d="M275 302Q280 302 280 298L277 280Q276 276 273 276H70Q66 276 67 280L69 299Q70 302 73 302H162Q164 302 166 306L222 703Q224 708 218 706L126 671Q121 669 121 675L123 689Q124 692 125 694T129 697L219 740Q224
742 227 742T234 743H251Q257 743 256 736L195 306Q193 302 197 302H275V302ZM153 3Q149 -1 146 -2T137 -4H121Q114 -4 113 0T116 10L709 746Q711 750 714 750T721 750H741Q745 750 747 748T746 741L153 3ZM672 192Q703 220 730 248T773 306T790 367Q790 408 761
427T696 447Q668 447 632 433T570 386Q566 381 563 384L548 398Q546 400 550 406Q582 441 623 457T701 473Q731 473 758 463T802 429T819 369Q819 331 802 299T754 235T685 169L532 33Q528 31 529 29T534 26H771Q777 26 776 21L774 5Q773 3 773 2T769 0H500Q492
0 493 8L494 21Q495 29 497 33T505 42L672 192Z" />
<glyph unicode="&#xbe;" horiz-adv-x="882" d="M113 685Q112 687 112 689T113 694Q150 726 183 739T255 752Q317 752 351 724T386 651Q386 608 359 576T284 528Q281 527 281 526T285 523Q319 515 343 489T368 421Q368 382 347 348T284 294T181 273Q142 273 118
281T76 304T44 334Q42 337 44 339L60 353Q62 355 64 353Q84 324 116 312T186 299Q251 299 295 331T340 418Q340 450 322 470T276 501T216 512H159Q152 512 154 517L156 533Q156 537 161 537H207Q247 537 281 551T336 591T357 648Q357 682 330 704T256 726Q210 726
181 709T130 675Q124 670 120 677L113 685V685ZM220 3Q216 -1 213 -2T204 -4H188Q181 -4 180 0T183 10L776 746Q778 750 781 750T788 750H808Q812 750 814 748T813 741L220 3ZM749 464Q751 466 752 466T757 467H779Q784 467 784 460L742 165Q742 161 745 161H809Q816
161 816 156L813 140Q813 137 812 136T807 135H742Q737 135 737 130L720 5Q719 2 718 1T713 0H694Q690 0 691 6L708 130Q710 135 704 135H490Q484 135 485 142L488 161Q489 166 490 168T495 175L749 464V464ZM706 161Q710 161 711 166L745 414Q746 417 744 417T737
411L523 169Q516 161 523 161H706Z" />
<glyph unicode="&#xbf;" horiz-adv-x="506" d="M267 520Q268 526 270 528T280 530H319Q324 530 327 527T329 519L320 459Q319 455 318 453T313 451H265Q261 451 260 453T258 460L267 520ZM418 -44Q420 -45 421 -48T421 -54Q382 -109 317 -142T181 -175Q116 -175
72 -153T7 -89T-6 9Q0 51 19 81T66 135T123 181T181 230T229 291T256 374Q258 380 263 380H290Q294 380 296 377T298 369Q289 308 263 267T201 197T132 141T72 83T39 5Q31 -59 70 -96T183 -133Q222 -133 262 -119T334 -82T381 -31Q383 -29 384 -29T390 -30L418
-44Z" />
<glyph unicode="&#xc0;" horiz-adv-x="700" d="M24 0Q20 0 18 3T16 10L384 732Q387 738 390 740T400 742H433Q441 742 445 739T449 731L611 9Q612 5 610 3T603 0H579Q567 0 567 9L516 232Q515 238 508 238H186Q178 238 175 230L60 6Q59 2 57 1T49 0H24V0ZM497
278Q507 278 505 289L416 679Q414 689 411 688T402 676L203 290Q200 283 200 281T204 278H497ZM315 959Q316 961 318 961T322 961L538 869Q540 868 541 865T542 858L533 843Q532 839 530 839T523 839L307 914Q301 916 300 919T300 927L315 959V959Z" />
<glyph unicode="&#xc1;" horiz-adv-x="700" d="M24 0Q20 0 18 3T16 10L384 732Q387 738 390 740T400 742H433Q441 742 445 739T449 731L611 9Q612 5 610 3T603 0H579Q567 0 567 9L516 232Q515 238 508 238H186Q178 238 175 230L60 6Q59 2 57 1T49 0H24V0ZM497
278Q507 278 505 289L416 679Q414 689 411 688T402 676L203 290Q200 283 200 281T204 278H497ZM568 927Q569 923 568 921T561 916L323 839Q319 838 316 839T313 845L309 860Q308 868 312 869L554 963Q556 964 559 963T562 959L568 927Z" />
<glyph unicode="&#xc2;" horiz-adv-x="700" d="M24 0Q20 0 18 3T16 10L384 732Q387 738 390 740T400 742H433Q441 742 445 739T449 731L611 9Q612 5 610 3T603 0H579Q567 0 567 9L516 232Q515 238 508 238H186Q178 238 175 230L60 6Q59 2 57 1T49 0H24V0ZM497
278Q507 278 505 289L416 679Q414 689 411 688T402 676L203 290Q200 283 200 281T204 278H497ZM447 911Q440 917 439 916T428 909L359 861Q353 857 351 857T343 856H306Q301 856 300 859T304 867L414 946Q419 950 423 952T435 954H453Q459 954 462 951T468 945L555
865Q560 861 560 859T554 856H513Q509 856 506 858T499 863L447 911Z" />
<glyph unicode="&#xc3;" horiz-adv-x="700" d="M24 0Q20 0 18 3T16 10L384 732Q387 738 390 740T400 742H433Q441 742 445 739T449 731L611 9Q612 5 610 3T603 0H579Q567 0 567 9L516 232Q515 238 508 238H186Q178 238 175 230L60 6Q59 2 57 1T49 0H24V0ZM497
278Q507 278 505 289L416 679Q414 689 411 688T402 676L203 290Q200 283 200 281T204 278H497ZM567 903Q556 896 540 891T497 885Q471 885 454 891T422 903T387 909Q364 909 352 900T328 888Q322 887 321 888T317 894L311 910Q310 914 310 916T312 919Q329 930
345 936T383 943Q406 943 424 937T460 925T499 918Q511 918 519 920T534 927T551 935Q558 938 561 937T565 930L571 912Q572 909 572 907T567 903V903Z" />
<glyph unicode="&#xc4;" horiz-adv-x="700" d="M24 0Q20 0 18 3T16 10L384 732Q387 738 390 740T400 742H433Q441 742 445 739T449 731L611 9Q612 5 610 3T603 0H579Q567 0 567 9L516 232Q515 238 508 238H186Q178 238 175 230L60 6Q59 2 57 1T49 0H24V0ZM497
278Q507 278 505 289L416 679Q414 689 411 688T402 676L203 290Q200 283 200 281T204 278H497ZM404 867Q403 860 401 858T391 856H364Q357 856 355 858T354 867L365 945Q366 951 367 952T374 954H406Q411 954 413 952T414 943L404 867ZM515 867Q514 860 512 858T502
856H475Q468 856 466 858T465 867L476 945Q477 951 478 952T485 954H517Q522 954 524 952T525 943L515 867Z" />
<glyph unicode="&#xc5;" horiz-adv-x="700" d="M24 0Q20 0 18 3T16 10L384 732Q387 738 390 740T400 742H433Q441 742 445 739T449 731L611 9Q612 5 610 3T603 0H579Q567 0 567 9L516 232Q515 238 508 238H186Q178 238 175 230L60 6Q59 2 57 1T49 0H24V0ZM497
278Q507 278 505 289L416 679Q414 689 411 688T402 676L203 290Q200 283 200 281T204 278H497ZM527 864Q521 822 489 794T415 766Q387 766 366 779T334 817T328 870Q333 909 366 936T439 964Q468 964 489 951T520 915T527 864V864ZM484 867Q488 893 474 908T436
924Q412 924 392 907T367 863Q364 841 379 824T416 806Q442 806 461 824T484 867V867Z" />
<glyph unicode="&#xc6;" horiz-adv-x="964" d="M871 40Q876 40 878 39T879 32L876 6Q875 2 874 1T869 0H469Q464 0 462 2T460 11L492 234Q492 236 491 237T488 238H234Q230 238 227 236T221 230L61 6Q56 0 48 0H23Q19 0 17 3T17 10L533 732Q537 738 540 740T551
742H956Q960 742 962 740T963 734L959 708Q958 704 957 703T951 702H613Q608 702 606 700T602 692L561 401Q560 397 561 396T568 395H837Q841 395 843 393T844 387L840 361Q840 357 839 356T833 355H565Q560 355 557 353T553 345L512 48Q511 42 512 41T518 40H871V40ZM489
278Q494 278 496 281T499 288L554 679Q555 689 552 688T540 676L257 285Q253 280 253 279T257 278H489V278Z" />
<glyph unicode="&#xc7;" horiz-adv-x="695" d="M444 752Q506 752 557 724T640 651T670 554Q670 547 663 547L629 544Q623 544 622 554Q615 624 565 667T440 710Q373 710 322 684T235 614T177 513T144 396T133 275Q133 157 186 95T348 32Q427 32 485 70T583 188Q585
192 592 189L622 178Q628 176 625 169Q609 136 587 108T538 59T480 22T414 -2T344 -10Q261 -10 203 23T116 121T86 276Q86 340 98 407T137 536T206 647T307 724T444 752V752ZM398 -131Q393 -168 362 -186T290 -204Q268 -204 251 -198T220 -182Q218 -182 217 -180T215
-176L228 -156Q229 -154 230 -155T234 -158Q242 -165 253 -169T286 -174Q318 -174 335 -163T355 -129Q358 -106 341 -95T286 -83Q282 -83 281 -81T280 -78L328 5H362L330 -56Q329 -57 329 -57T331 -58Q361 -61 376 -72T396 -98T398 -131V-131Z" />
<glyph unicode="&#xc8;" horiz-adv-x="612" d="M180 733Q181 739 182 740T189 742H606Q613 742 611 734L608 710Q607 706 605 704T598 702H230Q225 702 223 701T220 694L179 401Q178 398 179 397T185 395H477Q481 395 482 393T482 387L478 362Q477 355 469 355H181Q172
355 171 345L130 48Q129 40 136 40H519Q524 40 526 39T527 32L524 6Q523 2 522 1T517 0H87Q77 0 78 11L180 733V733ZM310 959Q311 961 313 961T317 961L533 869Q535 868 536 865T537 858L528 843Q527 839 525 839T518 839L302 914Q296 916 295 919T295 927L310
959V959Z" />
<glyph unicode="&#xc9;" horiz-adv-x="612" d="M180 733Q181 739 182 740T189 742H606Q613 742 611 734L608 710Q607 706 605 704T598 702H230Q225 702 223 701T220 694L179 401Q178 398 179 397T185 395H477Q481 395 482 393T482 387L478 362Q477 355 469 355H181Q172
355 171 345L130 48Q129 40 136 40H519Q524 40 526 39T527 32L524 6Q523 2 522 1T517 0H87Q77 0 78 11L180 733V733ZM563 927Q564 923 563 921T556 916L318 839Q314 838 311 839T308 845L304 860Q303 868 307 869L549 963Q551 964 554 963T557 959L563 927Z" />
<glyph unicode="&#xca;" horiz-adv-x="612" d="M180 733Q181 739 182 740T189 742H606Q613 742 611 734L608 710Q607 706 605 704T598 702H230Q225 702 223 701T220 694L179 401Q178 398 179 397T185 395H477Q481 395 482 393T482 387L478 362Q477 355 469 355H181Q172
355 171 345L130 48Q129 40 136 40H519Q524 40 526 39T527 32L524 6Q523 2 522 1T517 0H87Q77 0 78 11L180 733V733ZM442 911Q435 917 434 916T423 909L354 861Q348 857 346 857T338 856H301Q296 856 295 859T299 867L409 946Q414 950 418 952T430 954H448Q454
954 457 951T463 945L550 865Q555 861 555 859T549 856H508Q504 856 501 858T494 863L442 911Z" />
<glyph unicode="&#xcb;" horiz-adv-x="612" d="M180 733Q181 739 182 740T189 742H606Q613 742 611 734L608 710Q607 706 605 704T598 702H230Q225 702 223 701T220 694L179 401Q178 398 179 397T185 395H477Q481 395 482 393T482 387L478 362Q477 355 469 355H181Q172
355 171 345L130 48Q129 40 136 40H519Q524 40 526 39T527 32L524 6Q523 2 522 1T517 0H87Q77 0 78 11L180 733V733ZM399 867Q398 860 396 858T386 856H359Q352 856 350 858T349 867L360 945Q361 951 362 952T369 954H401Q406 954 408 952T409 943L399 867ZM510
867Q509 860 507 858T497 856H470Q463 856 461 858T460 867L471 945Q472 951 473 952T480 954H512Q517 954 519 952T520 943L510 867Z" />
<glyph unicode="&#xcc;" horiz-adv-x="274" d="M217 742Q228 742 225 731L124 11Q123 4 122 2T112 0H89Q82 0 80 2T78 11L180 733Q181 739 182 740T189 742H217ZM105 959Q106 961 108 961T112 961L328 869Q330 868 331 865T332 858L323 843Q322 839 320 839T313
839L97 914Q91 916 90 919T90 927L105 959V959Z" />
<glyph unicode="&#xcd;" horiz-adv-x="274" d="M217 742Q228 742 225 731L124 11Q123 4 122 2T112 0H89Q82 0 80 2T78 11L180 733Q181 739 182 740T189 742H217ZM358 927Q359 923 358 921T351 916L113 839Q109 838 106 839T103 845L99 860Q98 868 102 869L344
963Q346 964 349 963T352 959L358 927Z" />
<glyph unicode="&#xce;" horiz-adv-x="274" d="M217 742Q228 742 225 731L124 11Q123 4 122 2T112 0H89Q82 0 80 2T78 11L180 733Q181 739 182 740T189 742H217ZM237 911Q230 917 229 916T218 909L149 861Q143 857 141 857T133 856H96Q91 856 90 859T94 867L204
946Q209 950 213 952T225 954H243Q249 954 252 951T258 945L345 865Q350 861 350 859T344 856H303Q299 856 296 858T289 863L237 911Z" />
<glyph unicode="&#xcf;" horiz-adv-x="274" d="M217 742Q228 742 225 731L124 11Q123 4 122 2T112 0H89Q82 0 80 2T78 11L180 733Q181 739 182 740T189 742H217ZM194 867Q193 860 191 858T181 856H154Q147 856 145 858T144 867L155 945Q156 951 157 952T164 954H196Q201
954 203 952T204 943L194 867ZM305 867Q304 860 302 858T292 856H265Q258 856 256 858T255 867L266 945Q267 951 268 952T275 954H307Q312 954 314 952T315 943L305 867Z" />
<glyph unicode="&#xd0;" horiz-adv-x="666" d="M336 363Q335 357 332 355T322 353H38Q32 353 30 356T29 364L32 387Q33 392 34 393T39 395H332Q336 395 338 393T339 386L336 363ZM50 0Q46 0 43 3T41 11L143 735Q144 739 147 740T154 742H267Q387 742 463 712T575
620T611 465Q611 315 563 212T414 54T159 0H50V0ZM157 40Q303 40 392 88T522 231T563 465Q563 555 530 606T428 679T256 701H193Q183 701 182 690L94 53Q93 45 95 43T104 40H157Z" />
<glyph unicode="&#xd1;" horiz-adv-x="755" d="M698 742Q707 742 706 731L605 9Q604 0 596 0H581Q575 0 571 1T563 7L223 638Q219 646 215 645T210 636L122 8Q121 4 119 2T112 0H87Q82 0 80 3T78 11L180 733Q181 739 182 740T189 742H207Q213 742 216 741T221
734L559 104Q564 96 569 97T575 108L663 734Q664 739 665 740T671 742H698ZM611 903Q600 896 584 891T541 885Q515 885 498 891T466 903T431 909Q408 909 396 900T372 888Q366 887 365 888T361 894L355 910Q354 914 354 916T356 919Q373 930 389 936T427 943Q450
943 468 937T504 925T543 918Q555 918 563 920T578 927T595 935Q602 938 605 937T609 930L615 912Q616 909 616 907T611 903V903Z" />
<glyph unicode="&#xd2;" horiz-adv-x="758" d="M342 -10Q260 -10 203 22T116 117T86 273Q86 296 87 320T93 369Q111 494 158 579T279 708T446 752Q527 752 584 719T671 622T701 463Q701 441 700 417T694 367Q677 244 630 160T509 33T342 -10V-10ZM346 32Q471 32
547 116T647 371Q651 398 652 423T654 470Q654 591 601 650T445 710Q321 710 243 625T140 367Q136 342 135 318T133 273Q133 152 187 92T346 32V32ZM344 959Q345 961 347 961T351 961L567 869Q569 868 570 865T571 858L562 843Q561 839 559 839T552 839L336 914Q330
916 329 919T329 927L344 959V959Z" />
<glyph unicode="&#xd3;" horiz-adv-x="758" d="M342 -10Q260 -10 203 22T116 117T86 273Q86 296 87 320T93 369Q111 494 158 579T279 708T446 752Q527 752 584 719T671 622T701 463Q701 441 700 417T694 367Q677 244 630 160T509 33T342 -10V-10ZM346 32Q471 32
547 116T647 371Q651 398 652 423T654 470Q654 591 601 650T445 710Q321 710 243 625T140 367Q136 342 135 318T133 273Q133 152 187 92T346 32V32ZM597 927Q598 923 597 921T590 916L352 839Q348 838 345 839T342 845L338 860Q337 868 341 869L583 963Q585 964
588 963T591 959L597 927Z" />
<glyph unicode="&#xd4;" horiz-adv-x="758" d="M342 -10Q260 -10 203 22T116 117T86 273Q86 296 87 320T93 369Q111 494 158 579T279 708T446 752Q527 752 584 719T671 622T701 463Q701 441 700 417T694 367Q677 244 630 160T509 33T342 -10V-10ZM346 32Q471 32
547 116T647 371Q651 398 652 423T654 470Q654 591 601 650T445 710Q321 710 243 625T140 367Q136 342 135 318T133 273Q133 152 187 92T346 32V32ZM476 911Q469 917 468 916T457 909L388 861Q382 857 380 857T372 856H335Q330 856 329 859T333 867L443 946Q448
950 452 952T464 954H482Q488 954 491 951T497 945L584 865Q589 861 589 859T583 856H542Q538 856 535 858T528 863L476 911Z" />
<glyph unicode="&#xd5;" horiz-adv-x="758" d="M342 -10Q260 -10 203 22T116 117T86 273Q86 296 87 320T93 369Q111 494 158 579T279 708T446 752Q527 752 584 719T671 622T701 463Q701 441 700 417T694 367Q677 244 630 160T509 33T342 -10V-10ZM346 32Q471 32
547 116T647 371Q651 398 652 423T654 470Q654 591 601 650T445 710Q321 710 243 625T140 367Q136 342 135 318T133 273Q133 152 187 92T346 32V32ZM596 903Q585 896 569 891T526 885Q500 885 483 891T451 903T416 909Q393 909 381 900T357 888Q351 887 350 888T346
894L340 910Q339 914 339 916T341 919Q358 930 374 936T412 943Q435 943 453 937T489 925T528 918Q540 918 548 920T563 927T580 935Q587 938 590 937T594 930L600 912Q601 909 601 907T596 903V903Z" />
<glyph unicode="&#xd6;" horiz-adv-x="758" d="M342 -10Q260 -10 203 22T116 117T86 273Q86 296 87 320T93 369Q111 494 158 579T279 708T446 752Q527 752 584 719T671 622T701 463Q701 441 700 417T694 367Q677 244 630 160T509 33T342 -10V-10ZM346 32Q471 32
547 116T647 371Q651 398 652 423T654 470Q654 591 601 650T445 710Q321 710 243 625T140 367Q136 342 135 318T133 273Q133 152 187 92T346 32V32ZM433 867Q432 860 430 858T420 856H393Q386 856 384 858T383 867L394 945Q395 951 396 952T403 954H435Q440 954
442 952T443 943L433 867ZM544 867Q543 860 541 858T531 856H504Q497 856 495 858T494 867L505 945Q506 951 507 952T514 954H546Q551 954 553 952T554 943L544 867Z" />
<glyph unicode="&#xd7;" horiz-adv-x="517" d="M418 187Q414 184 412 185T405 190L111 531Q109 534 108 536T111 542L130 559Q133 561 135 561T138 558L436 213Q438 211 439 209T437 204L418 187ZM66 204Q64 207 64 210T67 217L456 559Q460 562 462 561T467 557L482
540Q484 538 485 536T484 532L90 186Q87 184 85 184T81 187L66 204Z" />
<glyph unicode="&#xd8;" horiz-adv-x="708" d="M748 726Q750 724 751 721T749 715L648 616Q669 570 674 508T669 367Q652 244 605 160T484 33T317 -10Q247 -10 196 13T112 82L27 -4Q22 -10 18 -9T8 -4L-7 12Q-11 17 -12 20T-10 27L89 124Q69 170 63 231T68 369Q86
494 133 579T254 708T421 752Q490 752 541 728T625 658L713 747Q716 751 719 751T726 748L748 726V726ZM118 367Q109 303 111 252T125 160L593 626Q568 668 524 688T419 709Q295 709 219 624T118 367V367ZM619 371Q628 436 627 488T612 581L145 116Q171 74 215
54T321 33Q446 33 520 116T619 371V371Z" />
<glyph unicode="&#xd9;" horiz-adv-x="702" d="M593 229Q582 149 548 96T455 16T314 -10Q204 -10 150 37T96 183Q96 197 97 213T101 246L170 732Q171 738 172 740T178 742H206Q212 742 214 740T215 731L144 225Q143 213 142 203T141 181Q141 106 185 69T318 32Q388
32 437 54T515 120T553 230L624 734Q625 739 626 740T632 742H656Q661 742 662 740T664 732L593 229V229ZM320 959Q321 961 323 961T327 961L543 869Q545 868 546 865T547 858L538 843Q537 839 535 839T528 839L312 914Q306 916 305 919T305 927L320 959V959Z"
/>
<glyph unicode="&#xda;" horiz-adv-x="702" d="M593 229Q582 149 548 96T455 16T314 -10Q204 -10 150 37T96 183Q96 197 97 213T101 246L170 732Q171 738 172 740T178 742H206Q212 742 214 740T215 731L144 225Q143 213 142 203T141 181Q141 106 185 69T318 32Q388
32 437 54T515 120T553 230L624 734Q625 739 626 740T632 742H656Q661 742 662 740T664 732L593 229V229ZM573 927Q574 923 573 921T566 916L328 839Q324 838 321 839T318 845L314 860Q313 868 317 869L559 963Q561 964 564 963T567 959L573 927Z" />
<glyph unicode="&#xdb;" horiz-adv-x="702" d="M593 229Q582 149 548 96T455 16T314 -10Q204 -10 150 37T96 183Q96 197 97 213T101 246L170 732Q171 738 172 740T178 742H206Q212 742 214 740T215 731L144 225Q143 213 142 203T141 181Q141 106 185 69T318 32Q388
32 437 54T515 120T553 230L624 734Q625 739 626 740T632 742H656Q661 742 662 740T664 732L593 229V229ZM452 911Q445 917 444 916T433 909L364 861Q358 857 356 857T348 856H311Q306 856 305 859T309 867L419 946Q424 950 428 952T440 954H458Q464 954 467 951T473
945L560 865Q565 861 565 859T559 856H518Q514 856 511 858T504 863L452 911Z" />
<glyph unicode="&#xdc;" horiz-adv-x="702" d="M593 229Q582 149 548 96T455 16T314 -10Q204 -10 150 37T96 183Q96 197 97 213T101 246L170 732Q171 738 172 740T178 742H206Q212 742 214 740T215 731L144 225Q143 213 142 203T141 181Q141 106 185 69T318 32Q388
32 437 54T515 120T553 230L624 734Q625 739 626 740T632 742H656Q661 742 662 740T664 732L593 229V229ZM409 867Q408 860 406 858T396 856H369Q362 856 360 858T359 867L370 945Q371 951 372 952T379 954H411Q416 954 418 952T419 943L409 867ZM520 867Q519 860
517 858T507 856H480Q473 856 471 858T470 867L481 945Q482 951 483 952T490 954H522Q527 954 529 952T530 943L520 867Z" />
<glyph unicode="&#xdd;" horiz-adv-x="638" d="M650 742Q655 742 656 739T654 730L358 325Q355 321 354 317T351 305L309 12Q308 5 305 3T293 0H272Q265 0 264 3T263 12L303 296Q305 304 305 307T302 316L116 731Q114 736 115 739T123 742H147Q154 742 157 740T162
732L321 375Q330 354 345 375L605 734Q609 739 612 740T622 742H650V742ZM532 927Q533 923 532 921T525 916L287 839Q283 838 280 839T277 845L273 860Q272 868 276 869L518 963Q520 964 523 963T526 959L532 927Z" />
<glyph unicode="&#xde;" horiz-adv-x="673" d="M628 388Q618 313 578 268T477 203T340 182H157Q153 182 151 180T147 172L124 8Q123 4 122 2T116 0H86Q82 0 80 2T78 9L180 733Q181 739 182 740T189 742H217Q222 742 224 740T225 731L205 583Q204 581 205 580T209
579H388Q466 579 523 559T609 497T628 388V388ZM581 392Q592 475 539 507T384 539H209Q205 539 202 537T197 530L155 231Q154 226 155 224T160 222H344Q440 222 504 261T581 392V392Z" />
<glyph unicode="&#xdf;" horiz-adv-x="582" d="M375 742Q435 742 465 721T505 669T510 607Q505 567 485 544T438 506T381 476Q331 451 310 437T285 396Q282 371 297 361T354 336Q377 329 406 318T462 288T503 236T511 156Q503 102 472 65T397 9T302 -10Q268 -10
232 -2T172 23Q168 25 166 27T166 33L186 57Q188 59 190 58T194 55Q217 42 239 35T296 28Q368 28 414 62T469 157Q476 203 458 229T407 270T340 298Q317 305 293 314T254 343T244 399Q249 436 276 460T360 511Q384 522 407 534T447 564T469 614Q475 656 448 680T366
704Q297 704 247 662T184 534L110 9Q110 4 109 2T102 0H78Q74 0 72 2T70 9L137 486Q138 491 137 493T131 495H69Q66 495 65 497T63 502L67 525Q67 527 68 528T72 530H135Q140 530 141 533T144 540Q150 588 170 625T221 689T291 728T375 742V742Z" />
<glyph unicode="&#xe0;" horiz-adv-x="538" d="M382 70Q335 30 286 10T181 -10Q109 -10 69 23T28 113Q28 164 51 199T114 257T201 292T300 308L406 317Q425 319 427 333L431 364Q432 370 432 376T433 388Q433 441 398 471T303 502Q251 502 207 478T121 408Q118
405 116 405T111 407L89 422Q87 424 87 426T89 433Q127 479 182 509T307 540Q359 540 396 523T453 473T473 396Q473 389 473 382T471 366L421 9Q420 3 418 2T411 0H393Q389 0 386 2T384 10L391 71Q391 81 382 70V70ZM417 267Q418 275 416 278T406 280L316 273Q281
270 239 263T158 239T96 194T71 118Q71 75 102 52T189 28Q227 28 264 42T332 78Q364 101 382 125T404 172L417 267ZM201 747Q202 749 204 749T208 749L424 657Q426 656 427 653T428 646L419 631Q418 627 416 627T409 627L193 702Q187 704 186 707T186 715L201 747V747Z"
/>
<glyph unicode="&#xe1;" horiz-adv-x="538" d="M382 70Q335 30 286 10T181 -10Q109 -10 69 23T28 113Q28 164 51 199T114 257T201 292T300 308L406 317Q425 319 427 333L431 364Q432 370 432 376T433 388Q433 441 398 471T303 502Q251 502 207 478T121 408Q118
405 116 405T111 407L89 422Q87 424 87 426T89 433Q127 479 182 509T307 540Q359 540 396 523T453 473T473 396Q473 389 473 382T471 366L421 9Q420 3 418 2T411 0H393Q389 0 386 2T384 10L391 71Q391 81 382 70V70ZM417 267Q418 275 416 278T406 280L316 273Q281
270 239 263T158 239T96 194T71 118Q71 75 102 52T189 28Q227 28 264 42T332 78Q364 101 382 125T404 172L417 267ZM454 715Q455 711 454 709T447 704L209 627Q205 626 202 627T199 633L195 648Q194 656 198 657L440 751Q442 752 445 751T448 747L454 715Z" />
<glyph unicode="&#xe2;" horiz-adv-x="538" d="M382 70Q335 30 286 10T181 -10Q109 -10 69 23T28 113Q28 164 51 199T114 257T201 292T300 308L406 317Q425 319 427 333L431 364Q432 370 432 376T433 388Q433 441 398 471T303 502Q251 502 207 478T121 408Q118
405 116 405T111 407L89 422Q87 424 87 426T89 433Q127 479 182 509T307 540Q359 540 396 523T453 473T473 396Q473 389 473 382T471 366L421 9Q420 3 418 2T411 0H393Q389 0 386 2T384 10L391 71Q391 81 382 70V70ZM417 267Q418 275 416 278T406 280L316 273Q281
270 239 263T158 239T96 194T71 118Q71 75 102 52T189 28Q227 28 264 42T332 78Q364 101 382 125T404 172L417 267ZM333 699Q326 705 325 704T314 697L245 649Q239 645 237 645T229 644H192Q187 644 186 647T190 655L300 734Q305 738 309 740T321 742H339Q345 742
348 739T354 733L441 653Q446 649 446 647T440 644H399Q395 644 392 646T385 651L333 699Z" />
<glyph unicode="&#xe3;" horiz-adv-x="538" d="M382 70Q335 30 286 10T181 -10Q109 -10 69 23T28 113Q28 164 51 199T114 257T201 292T300 308L406 317Q425 319 427 333L431 364Q432 370 432 376T433 388Q433 441 398 471T303 502Q251 502 207 478T121 408Q118
405 116 405T111 407L89 422Q87 424 87 426T89 433Q127 479 182 509T307 540Q359 540 396 523T453 473T473 396Q473 389 473 382T471 366L421 9Q420 3 418 2T411 0H393Q389 0 386 2T384 10L391 71Q391 81 382 70V70ZM417 267Q418 275 416 278T406 280L316 273Q281
270 239 263T158 239T96 194T71 118Q71 75 102 52T189 28Q227 28 264 42T332 78Q364 101 382 125T404 172L417 267ZM453 691Q442 684 426 679T383 673Q357 673 340 679T308 691T273 697Q250 697 238 688T214 676Q208 675 207 676T203 682L197 698Q196 702 196 704T198
707Q215 718 231 724T269 731Q292 731 310 725T346 713T385 706Q397 706 405 708T420 715T437 723Q444 726 447 725T451 718L457 700Q458 697 458 695T453 691V691Z" />
<glyph unicode="&#xe4;" horiz-adv-x="538" d="M382 70Q335 30 286 10T181 -10Q109 -10 69 23T28 113Q28 164 51 199T114 257T201 292T300 308L406 317Q425 319 427 333L431 364Q432 370 432 376T433 388Q433 441 398 471T303 502Q251 502 207 478T121 408Q118
405 116 405T111 407L89 422Q87 424 87 426T89 433Q127 479 182 509T307 540Q359 540 396 523T453 473T473 396Q473 389 473 382T471 366L421 9Q420 3 418 2T411 0H393Q389 0 386 2T384 10L391 71Q391 81 382 70V70ZM417 267Q418 275 416 278T406 280L316 273Q281
270 239 263T158 239T96 194T71 118Q71 75 102 52T189 28Q227 28 264 42T332 78Q364 101 382 125T404 172L417 267ZM290 655Q289 648 287 646T277 644H250Q243 644 241 646T240 655L251 733Q252 739 253 740T260 742H292Q297 742 299 740T300 731L290 655ZM401
655Q400 648 398 646T388 644H361Q354 644 352 646T351 655L362 733Q363 739 364 740T371 742H403Q408 742 410 740T411 731L401 655Z" />
<glyph unicode="&#xe5;" horiz-adv-x="538" d="M382 70Q335 30 286 10T181 -10Q109 -10 69 23T28 113Q28 164 51 199T114 257T201 292T300 308L406 317Q425 319 427 333L431 364Q432 370 432 376T433 388Q433 441 398 471T303 502Q251 502 207 478T121 408Q118
405 116 405T111 407L89 422Q87 424 87 426T89 433Q127 479 182 509T307 540Q359 540 396 523T453 473T473 396Q473 389 473 382T471 366L421 9Q420 3 418 2T411 0H393Q389 0 386 2T384 10L391 71Q391 81 382 70V70ZM417 267Q418 275 416 278T406 280L316 273Q281
270 239 263T158 239T96 194T71 118Q71 75 102 52T189 28Q227 28 264 42T332 78Q364 101 382 125T404 172L417 267ZM427 699Q421 657 389 629T315 601Q287 601 266 614T234 652T228 705Q233 744 266 771T339 799Q368 799 389 786T420 750T427 699V699ZM384 702Q388
728 374 743T336 759Q312 759 292 742T267 698Q264 676 279 659T316 641Q342 641 361 659T384 702V702Z" />
<glyph unicode="&#xe6;" horiz-adv-x="929" d="M469 253Q456 253 452 248T445 226Q438 180 458 134T519 58T615 28Q668 28 703 43T763 80T805 123Q810 127 811 127T816 124L836 109Q838 108 839 106T838 98Q817 67 782 43T703 4T611 -10Q550 -10 513 11T455 60T422
110Q421 112 420 111T417 106Q396 84 365 57T287 10T176 -10Q97 -10 58 29T29 138Q40 211 103 254T291 308L404 317Q413 318 419 322T426 333L430 364Q439 428 405 465T297 502Q248 502 204 478T119 408Q115 404 113 404T108 407L88 422Q86 424 86 426T88 433Q114
467 149 491T224 527T307 540Q382 540 421 510T466 421Q504 481 561 510T688 540Q757 540 804 509T872 418T881 272Q880 263 876 259T861 254L469 253V253ZM683 502Q628 502 580 476T498 402T456 290H823Q835 290 838 294T843 308Q851 362 833 406T777 476T683
502V502ZM416 266Q418 274 416 277T404 279L308 272Q232 266 182 249T105 203T72 136Q65 87 95 57T188 29Q243 32 290 52T368 106T404 178L416 266V266Z" />
<glyph unicode="&#xe7;" horiz-adv-x="537" d="M333 540Q378 540 412 527T471 489T514 431Q517 427 517 425T514 420L489 406Q487 405 485 407T479 413Q456 446 434 465T388 493T336 502Q279 502 234 478T158 412T111 319T94 215Q94 130 139 79T265 28Q317 28
361 53T446 130Q452 136 456 131L477 116Q479 115 480 112T480 105Q458 76 433 54T379 18T321 -3T259 -10Q195 -10 149 17T77 95T52 212Q52 271 70 329T125 435T213 511T333 540V540ZM314 -131Q309 -168 278 -186T206 -204Q184 -204 167 -198T136 -182Q134 -182
133 -180T131 -176L144 -156Q145 -154 146 -155T150 -158Q158 -165 169 -169T202 -174Q234 -174 251 -163T271 -129Q274 -106 257 -95T202 -83Q198 -83 197 -81T196 -78L244 5H278L246 -56Q245 -57 245 -57T247 -58Q277 -61 292 -72T312 -98T314 -131V-131Z" />
<glyph unicode="&#xe8;" horiz-adv-x="577" d="M262 -10Q198 -10 151 17T78 94T52 211Q52 273 70 331T125 437T215 512T336 540Q398 540 442 516T509 445T533 331Q533 317 532 303T529 272Q528 265 523 260T510 254H104Q98 254 95 247T92 208Q92 126 140 77T264
28Q325 28 372 52T453 123Q457 127 459 127T464 124L485 109Q490 106 487 98Q459 62 425 38T350 2T262 -10V-10ZM472 290Q483 290 488 298T494 339Q494 413 450 457T333 502Q267 502 218 470T139 389T102 290H472ZM232 747Q233 749 235 749T239 749L455 657Q457
656 458 653T459 646L450 631Q449 627 447 627T440 627L224 702Q218 704 217 707T217 715L232 747V747Z" />
<glyph unicode="&#xe9;" horiz-adv-x="577" d="M262 -10Q198 -10 151 17T78 94T52 211Q52 273 70 331T125 437T215 512T336 540Q398 540 442 516T509 445T533 331Q533 317 532 303T529 272Q528 265 523 260T510 254H104Q98 254 95 247T92 208Q92 126 140 77T264
28Q325 28 372 52T453 123Q457 127 459 127T464 124L485 109Q490 106 487 98Q459 62 425 38T350 2T262 -10V-10ZM472 290Q483 290 488 298T494 339Q494 413 450 457T333 502Q267 502 218 470T139 389T102 290H472ZM485 715Q486 711 485 709T478 704L240 627Q236
626 233 627T230 633L226 648Q225 656 229 657L471 751Q473 752 476 751T479 747L485 715Z" />
<glyph unicode="&#xea;" horiz-adv-x="577" d="M262 -10Q198 -10 151 17T78 94T52 211Q52 273 70 331T125 437T215 512T336 540Q398 540 442 516T509 445T533 331Q533 317 532 303T529 272Q528 265 523 260T510 254H104Q98 254 95 247T92 208Q92 126 140 77T264
28Q325 28 372 52T453 123Q457 127 459 127T464 124L485 109Q490 106 487 98Q459 62 425 38T350 2T262 -10V-10ZM472 290Q483 290 488 298T494 339Q494 413 450 457T333 502Q267 502 218 470T139 389T102 290H472ZM364 699Q357 705 356 704T345 697L276 649Q270
645 268 645T260 644H223Q218 644 217 647T221 655L331 734Q336 738 340 740T352 742H370Q376 742 379 739T385 733L472 653Q477 649 477 647T471 644H430Q426 644 423 646T416 651L364 699Z" />
<glyph unicode="&#xeb;" horiz-adv-x="577" d="M262 -10Q198 -10 151 17T78 94T52 211Q52 273 70 331T125 437T215 512T336 540Q398 540 442 516T509 445T533 331Q533 317 532 303T529 272Q528 265 523 260T510 254H104Q98 254 95 247T92 208Q92 126 140 77T264
28Q325 28 372 52T453 123Q457 127 459 127T464 124L485 109Q490 106 487 98Q459 62 425 38T350 2T262 -10V-10ZM472 290Q483 290 488 298T494 339Q494 413 450 457T333 502Q267 502 218 470T139 389T102 290H472ZM321 655Q320 648 318 646T308 644H281Q274 644
272 646T271 655L282 733Q283 739 284 740T291 742H323Q328 742 330 740T331 731L321 655ZM432 655Q431 648 429 646T419 644H392Q385 644 383 646T382 655L393 733Q394 739 395 740T402 742H434Q439 742 441 740T442 731L432 655Z" />
<glyph unicode="&#xec;" horiz-adv-x="222" d="M95 11Q94 4 93 2T83 0H66Q59 0 57 2T55 11L127 521Q128 527 129 528T136 530H158Q163 530 165 528T167 519L95 11ZM46 747Q47 749 49 749T53 749L269 657Q271 656 272 653T273 646L264 631Q263 627 261 627T254
627L38 702Q32 704 31 707T31 715L46 747V747Z" />
<glyph unicode="&#xed;" horiz-adv-x="222" d="M95 11Q94 4 93 2T83 0H66Q59 0 57 2T55 11L127 521Q128 527 129 528T136 530H158Q163 530 165 528T167 519L95 11ZM299 715Q300 711 299 709T292 704L54 627Q50 626 47 627T44 633L40 648Q39 656 43 657L285 751Q287
752 290 751T293 747L299 715Z" />
<glyph unicode="&#xee;" horiz-adv-x="222" d="M95 11Q94 4 93 2T83 0H66Q59 0 57 2T55 11L127 521Q128 527 129 528T136 530H158Q163 530 165 528T167 519L95 11ZM178 699Q171 705 170 704T159 697L90 649Q84 645 82 645T74 644H37Q32 644 31 647T35 655L145
734Q150 738 154 740T166 742H184Q190 742 193 739T199 733L286 653Q291 649 291 647T285 644H244Q240 644 237 646T230 651L178 699Z" />
<glyph unicode="&#xef;" horiz-adv-x="222" d="M95 11Q94 4 93 2T83 0H66Q59 0 57 2T55 11L127 521Q128 527 129 528T136 530H158Q163 530 165 528T167 519L95 11ZM135 655Q134 648 132 646T122 644H95Q88 644 86 646T85 655L96 733Q97 739 98 740T105 742H137Q142
742 144 740T145 731L135 655ZM246 655Q245 648 243 646T233 644H206Q199 644 197 646T196 655L207 733Q208 739 209 740T216 742H248Q253 742 255 740T256 731L246 655Z" />
<glyph unicode="&#xf0;" horiz-adv-x="598" d="M540 253Q530 177 493 118T396 24T260 -10Q188 -10 138 23T66 117T54 254Q65 332 103 392T199 486T324 520Q378 520 419 502T489 451Q473 506 440 556T348 649L166 553Q162 551 159 553T154 559L147 573Q143 581
148 584L317 671Q294 685 268 698T213 725Q209 726 208 729T210 736L230 748Q235 751 238 751T247 748Q279 735 305 721T356 691L468 751Q471 753 474 752T477 748L486 726Q487 724 487 722T486 718L387 668Q493 589 525 484T540 253V253ZM266 28Q324 28 373 58T456
140T499 256Q508 319 489 370T430 452T332 482Q274 482 224 451T139 368T96 252Q88 190 107 139T167 58T266 28V28Z" />
<glyph unicode="&#xf1;" horiz-adv-x="576" d="M64 0Q60 0 57 3T55 10L127 522Q128 527 129 528T135 530H156Q161 530 163 528T164 521L155 459Q154 449 162 455Q215 496 264 518T367 540Q440 540 476 507T512 418Q512 412 512 406T510 392L456 9Q455 4 454 2T447
0H425Q421 0 418 3T416 10L468 378Q469 386 469 393T470 408Q470 453 445 477T364 502Q328 502 297 492T231 461T152 409L95 8Q94 4 93 2T86 0H64V0ZM490 691Q479 684 463 679T420 673Q394 673 377 679T345 691T310 697Q287 697 275 688T251 676Q245 675 244 676T240
682L234 698Q233 702 233 704T235 707Q252 718 268 724T306 731Q329 731 347 725T383 713T422 706Q434 706 442 708T457 715T474 723Q481 726 484 725T488 718L494 700Q495 697 495 695T490 691V691Z" />
<glyph unicode="&#xf2;" horiz-adv-x="598" d="M262 -10Q197 -10 150 17T77 95T52 211Q52 282 74 342T135 446T226 515T337 540Q402 540 448 512T520 432T545 313Q545 219 507 146T405 32T262 -10V-10ZM266 28Q334 28 387 64T472 165T503 315Q503 401 459 451T335
502Q268 502 213 465T126 363T94 214Q94 129 139 79T266 28V28ZM236 747Q237 749 239 749T243 749L459 657Q461 656 462 653T463 646L454 631Q453 627 451 627T444 627L228 702Q222 704 221 707T221 715L236 747V747Z" />
<glyph unicode="&#xf3;" horiz-adv-x="598" d="M262 -10Q197 -10 150 17T77 95T52 211Q52 282 74 342T135 446T226 515T337 540Q402 540 448 512T520 432T545 313Q545 219 507 146T405 32T262 -10V-10ZM266 28Q334 28 387 64T472 165T503 315Q503 401 459 451T335
502Q268 502 213 465T126 363T94 214Q94 129 139 79T266 28V28ZM489 715Q490 711 489 709T482 704L244 627Q240 626 237 627T234 633L230 648Q229 656 233 657L475 751Q477 752 480 751T483 747L489 715Z" />
<glyph unicode="&#xf4;" horiz-adv-x="598" d="M262 -10Q197 -10 150 17T77 95T52 211Q52 282 74 342T135 446T226 515T337 540Q402 540 448 512T520 432T545 313Q545 219 507 146T405 32T262 -10V-10ZM266 28Q334 28 387 64T472 165T503 315Q503 401 459 451T335
502Q268 502 213 465T126 363T94 214Q94 129 139 79T266 28V28ZM368 699Q361 705 360 704T349 697L280 649Q274 645 272 645T264 644H227Q222 644 221 647T225 655L335 734Q340 738 344 740T356 742H374Q380 742 383 739T389 733L476 653Q481 649 481 647T475 644H434Q430
644 427 646T420 651L368 699Z" />
<glyph unicode="&#xf5;" horiz-adv-x="598" d="M262 -10Q197 -10 150 17T77 95T52 211Q52 282 74 342T135 446T226 515T337 540Q402 540 448 512T520 432T545 313Q545 219 507 146T405 32T262 -10V-10ZM266 28Q334 28 387 64T472 165T503 315Q503 401 459 451T335
502Q268 502 213 465T126 363T94 214Q94 129 139 79T266 28V28ZM488 691Q477 684 461 679T418 673Q392 673 375 679T343 691T308 697Q285 697 273 688T249 676Q243 675 242 676T238 682L232 698Q231 702 231 704T233 707Q250 718 266 724T304 731Q327 731 345 725T381
713T420 706Q432 706 440 708T455 715T472 723Q479 726 482 725T486 718L492 700Q493 697 493 695T488 691V691Z" />
<glyph unicode="&#xf6;" horiz-adv-x="598" d="M262 -10Q197 -10 150 17T77 95T52 211Q52 282 74 342T135 446T226 515T337 540Q402 540 448 512T520 432T545 313Q545 219 507 146T405 32T262 -10V-10ZM266 28Q334 28 387 64T472 165T503 315Q503 401 459 451T335
502Q268 502 213 465T126 363T94 214Q94 129 139 79T266 28V28ZM325 655Q324 648 322 646T312 644H285Q278 644 276 646T275 655L286 733Q287 739 288 740T295 742H327Q332 742 334 740T335 731L325 655ZM436 655Q435 648 433 646T423 644H396Q389 644 387 646T386
655L397 733Q398 739 399 740T406 742H438Q443 742 445 740T446 731L436 655Z" />
<glyph unicode="&#xf7;" horiz-adv-x="541" d="M301 184Q300 178 298 176T287 174H228Q222 174 220 177T219 185L227 245Q228 250 229 251T234 253H302Q306 253 308 251T309 244L301 184ZM484 361Q484 357 482 356T475 354L91 353Q87 353 85 355T83 361L87 385Q88
389 89 390T92 391L481 392Q484 392 486 390T488 385L484 361ZM345 502Q344 496 342 494T332 492H273Q267 492 265 495T263 503L272 563Q273 568 274 569T279 571H347Q351 571 353 569T354 562L345 502Z" />
<glyph unicode="&#xf8;" horiz-adv-x="575" d="M15 3Q11 -1 7 0T-1 5L-10 17Q-14 22 -14 26T-8 36L558 525Q563 530 566 529T574 523L585 510Q588 506 589 503T585 496L15 3ZM251 -10Q186 -10 139 17T66 95T41 211Q41 282 63 342T124 446T215 515T326 540Q391
540 437 512T509 432T534 313Q534 219 496 146T394 32T251 -10V-10ZM255 28Q323 28 376 64T461 165T492 315Q492 401 448 451T324 502Q257 502 202 465T115 363T83 214Q83 129 128 79T255 28V28Z" />
<glyph unicode="&#xf9;" horiz-adv-x="571" d="M210 -10Q145 -10 105 25T64 117Q64 122 64 127T65 138L119 521Q120 526 122 528T128 530H150Q155 530 157 528T159 520L108 158Q107 151 107 145T106 132Q106 78 133 53T211 28Q263 28 314 56T421 134L476 522Q477
527 479 528T485 530H507Q512 530 514 528T516 520L444 8Q443 4 442 2T436 0H415Q411 0 409 2T407 9L416 70Q417 75 415 76T408 74Q338 23 293 7T210 -10V-10ZM203 747Q204 749 206 749T210 749L426 657Q428 656 429 653T430 646L421 631Q420 627 418 627T411 627L195
702Q189 704 188 707T188 715L203 747V747Z" />
<glyph unicode="&#xfa;" horiz-adv-x="571" d="M210 -10Q145 -10 105 25T64 117Q64 122 64 127T65 138L119 521Q120 526 122 528T128 530H150Q155 530 157 528T159 520L108 158Q107 151 107 145T106 132Q106 78 133 53T211 28Q263 28 314 56T421 134L476 522Q477
527 479 528T485 530H507Q512 530 514 528T516 520L444 8Q443 4 442 2T436 0H415Q411 0 409 2T407 9L416 70Q417 75 415 76T408 74Q338 23 293 7T210 -10V-10ZM456 715Q457 711 456 709T449 704L211 627Q207 626 204 627T201 633L197 648Q196 656 200 657L442 751Q444
752 447 751T450 747L456 715Z" />
<glyph unicode="&#xfb;" horiz-adv-x="571" d="M210 -10Q145 -10 105 25T64 117Q64 122 64 127T65 138L119 521Q120 526 122 528T128 530H150Q155 530 157 528T159 520L108 158Q107 151 107 145T106 132Q106 78 133 53T211 28Q263 28 314 56T421 134L476 522Q477
527 479 528T485 530H507Q512 530 514 528T516 520L444 8Q443 4 442 2T436 0H415Q411 0 409 2T407 9L416 70Q417 75 415 76T408 74Q338 23 293 7T210 -10V-10ZM335 699Q328 705 327 704T316 697L247 649Q241 645 239 645T231 644H194Q189 644 188 647T192 655L302
734Q307 738 311 740T323 742H341Q347 742 350 739T356 733L443 653Q448 649 448 647T442 644H401Q397 644 394 646T387 651L335 699Z" />
<glyph unicode="&#xfc;" horiz-adv-x="571" d="M210 -10Q145 -10 105 25T64 117Q64 122 64 127T65 138L119 521Q120 526 122 528T128 530H150Q155 530 157 528T159 520L108 158Q107 151 107 145T106 132Q106 78 133 53T211 28Q263 28 314 56T421 134L476 522Q477
527 479 528T485 530H507Q512 530 514 528T516 520L444 8Q443 4 442 2T436 0H415Q411 0 409 2T407 9L416 70Q417 75 415 76T408 74Q338 23 293 7T210 -10V-10ZM292 655Q291 648 289 646T279 644H252Q245 644 243 646T242 655L253 733Q254 739 255 740T262 742H294Q299
742 301 740T302 731L292 655ZM403 655Q402 648 400 646T390 644H363Q356 644 354 646T353 655L364 733Q365 739 366 740T373 742H405Q410 742 412 740T413 731L403 655Z" />
<glyph unicode="&#xfd;" horiz-adv-x="508" d="M46 -165Q18 -165 1 -165T-15 -156L-13 -141Q-12 -134 -6 -132T19 -129H75Q99 -129 121 -111T161 -67T187 -12T190 36L67 517Q65 530 76 530H100Q109 530 110 523L223 79Q225 70 229 70T240 81L473 522Q475 526 477
528T484 530H508Q517 530 511 522L197 -76Q184 -101 168 -118T132 -145T92 -160T46 -165V-165ZM443 715Q444 711 443 709T436 704L198 627Q194 626 191 627T188 633L184 648Q183 656 187 657L429 751Q431 752 434 751T437 747L443 715Z" />
<glyph unicode="&#xfe;" horiz-adv-x="588" d="M185 742Q190 742 192 739T194 730L157 467Q156 459 158 459T168 466Q177 474 198 492T254 525T341 540Q406 540 453 511T523 422T533 273Q521 189 483 125T387 26T255 -10Q203 -10 169 6T116 41Q101 53 98 32L72
-156Q71 -161 70 -163T63 -165H40Q36 -165 34 -162T32 -155L156 731Q158 738 160 740T169 742H185V742ZM107 103Q139 68 175 48T256 28Q314 28 363 57T447 142T491 273Q502 352 483 402T424 477T334 502Q284 502 243 480T175 426T145 363L107 103V103Z" />
<glyph unicode="&#xff;" horiz-adv-x="508" d="M46 -165Q18 -165 1 -165T-15 -156L-13 -141Q-12 -134 -6 -132T19 -129H75Q99 -129 121 -111T161 -67T187 -12T190 36L67 517Q65 530 76 530H100Q109 530 110 523L223 79Q225 70 229 70T240 81L473 522Q475 526 477
528T484 530H508Q517 530 511 522L197 -76Q184 -101 168 -118T132 -145T92 -160T46 -165V-165ZM279 655Q278 648 276 646T266 644H239Q232 644 230 646T229 655L240 733Q241 739 242 740T249 742H281Q286 742 288 740T289 731L279 655ZM390 655Q389 648 387 646T377
644H350Q343 644 341 646T340 655L351 733Q352 739 353 740T360 742H392Q397 742 399 740T400 731L390 655Z" />
<glyph unicode="&#x2013;" horiz-adv-x="541" d="M468 247Q468 243 466 242T458 240L75 239Q71 239 69 241T67 247L71 273Q72 277 73 278T76 279L465 280Q468 280 470 278T472 273L468 247Z" />
<glyph unicode="&#x2014;" horiz-adv-x="862" d="M789 247Q789 243 787 242T779 240L75 239Q71 239 69 241T67 247L71 273Q72 277 73 278T76 279L786 280Q789 280 791 278T793 273L789 247Z" />
<glyph unicode="&#x2018;" horiz-adv-x="210" d="M262 742Q267 742 265 736L206 643Q198 628 209 628H226Q231 628 232 627T233 622L223 553Q222 550 220 548T215 546H142Q139 546 138 547T138 551L146 613Q147 615 147 616T149 619L233 736Q234 739 237 740T245
742H262V742Z" />
<glyph unicode="&#x2019;" horiz-adv-x="210" d="M92 546Q87 546 89 552L148 645Q156 660 145 660H128Q124 660 123 661T121 666L131 735Q132 738 134 740T139 742H212Q215 742 216 741T216 737L208 675Q207 673 207 672T205 669L121 552Q120 549 117 548T109
546H92V546Z" />
<glyph unicode="&#x201a;" horiz-adv-x="210" d="M0 -114Q-7 -114 -3 -108L56 -15Q63 0 52 0H35Q31 0 30 1T29 6L38 75Q39 78 41 80T46 82H119Q122 82 123 81T124 77L115 15Q114 13 114 12T112 9L29 -108Q28 -111 25 -112T17 -114H0V-114Z" />
<glyph unicode="&#x201c;" horiz-adv-x="356" d="M250 546Q247 546 247 547T246 551L255 613Q255 615 256 616T258 619L341 736Q343 739 346 740T353 742H370Q377 742 373 736L314 643Q307 628 318 628H335Q340 628 341 627T341 622L331 553Q331 550 329 548T323
546H250V546ZM104 546Q101 546 101 547T100 551L109 613Q109 615 110 616T112 619L195 736Q197 739 200 740T207 742H224Q231 742 227 736L168 643Q161 628 172 628H189Q194 628 195 627T195 622L185 553Q185 550 183 548T177 546H104V546Z" />
<glyph unicode="&#x201d;" horiz-adv-x="356" d="M238 546Q233 546 235 552L294 645Q302 660 291 660H274Q270 660 269 661T267 666L277 735Q278 738 280 740T285 742H358Q361 742 362 741T362 737L354 675Q353 673 353 672T351 669L267 552Q266 549 263 548T255
546H238V546ZM92 546Q87 546 89 552L148 645Q156 660 145 660H128Q124 660 123 661T121 666L131 735Q132 738 134 740T139 742H212Q215 742 216 741T216 737L208 675Q207 673 207 672T205 669L121 552Q120 549 117 548T109 546H92V546Z" />
<glyph unicode="&#x201e;" horiz-adv-x="319" d="M109 -114Q102 -114 106 -108L165 -15Q172 0 161 0H144Q140 0 139 1T138 6L147 75Q148 78 150 80T155 82H228Q231 82 232 81T233 77L224 15Q223 13 223 12T221 9L138 -108Q137 -111 134 -112T126 -114H109V-114ZM219
-114Q212 -114 216 -108L275 -15Q282 0 271 0H254Q250 0 249 1T248 6L257 75Q258 78 260 80T265 82H338Q341 82 342 81T343 77L334 15Q333 13 333 12T331 9L248 -108Q247 -111 244 -112T236 -114H219V-114Z" />
<glyph unicode="&#x2022;" horiz-adv-x="294" d="M155 305Q135 305 119 315T96 342T91 379Q94 399 105 414T134 439T171 449Q192 449 207 439T229 413T234 375Q232 356 221 340T192 315T155 305V305Z" />
<glyph unicode="&#x2039;" horiz-adv-x="253" d="M176 82Q178 79 177 79T171 78H159Q156 78 154 80T151 83L37 251Q35 255 34 258T36 264L201 442Q203 445 204 445T208 445H222Q225 445 228 443T228 436L89 262Q87 259 86 256T86 250L176 82Z" />
<glyph unicode="&#x203a;" horiz-adv-x="254" d="M162 252Q165 255 166 258T166 264L76 438Q75 442 76 443T80 445H94Q97 445 101 440L216 262Q218 259 218 256T215 249L52 81Q51 80 50 79T45 78H33Q29 78 27 79T25 84L162 252V252Z" />
</font>
</defs>
</svg>
