<?xml version="1.0" standalone="no"?>
<!DOCTYPE svg PUBLIC "-//W3C//DTD SVG 1.1//EN" "http://www.w3.org/Graphics/SVG/1.1/DTD/svg11.dtd">
<svg xmlns="http://www.w3.org/2000/svg">
<defs >
<font id="LibreFranklin" horiz-adv-x="568" ><font-face
    font-family="Libre Franklin Thin Light"
    units-per-em="1000"
    panose-1="0 0 0 0 0 0 0 0 0 0"
    ascent="966"
    descent="-246"
    alphabetic="0" />
<glyph unicode=" " horiz-adv-x="217" />
<glyph unicode="!" horiz-adv-x="239" d="M162 14Q162 0 146 0H89Q76 0 76 12V87Q76 98 85 98H153Q162 98 162 88V14ZM143 178Q143 173 140 170T130 167H107Q101 167 99 169T96 177L79 732Q79 738 81 740T87 742H152Q161 742 160 734L143 178Z" />
<glyph unicode="&quot;" horiz-adv-x="393" d="M297 540Q296 534 294 531T284 527H262Q256 527 254 529T251 537L228 733Q228 738 230 740T236 742H313Q321 742 321 734L297 540ZM142 540Q141 534 139 531T129 527H107Q101 527 99 529T96 537L73 733Q73 738 75
740T81 742H158Q166 742 166 734L142 540Z" />
<glyph unicode="#" horiz-adv-x="603" d="M172 11Q171 5 169 2T161 0L134 4Q128 5 126 7T125 13L235 733Q236 737 238 740T244 742L274 738Q284 737 282 725L172 11ZM379 11Q378 5 376 2T367 0L341 4Q335 5 333 7T331 13L441 733Q442 737 444 740T450 742L480
738Q490 737 489 725L379 11ZM531 257Q531 245 518 245H49Q44 245 42 247T39 255V283Q39 293 46 293H523Q531 293 531 285V257ZM564 467Q564 455 551 455H82Q77 455 75 457T72 465V493Q72 503 79 503H556Q564 503 564 495V467Z" />
<glyph unicode="$" horiz-adv-x="592" d="M554 176Q554 124 528 83T455 18T346 -9Q340 -9 338 -11T336 -17V-78Q336 -90 325 -90H294Q284 -90 284 -81V-17Q284 -12 283 -11T277 -9Q191 -8 136 21T42 107Q32 119 41 126L67 149Q72 152 77 152T86 148Q122 102 165
77T275 50Q284 50 284 58V321Q284 330 279 336T263 347Q189 377 145 405T81 468T62 552Q62 606 88 648T163 716T274 749Q277 749 280 751T284 758V810Q284 814 286 816T291 819H325Q331 819 333 816T335 807V756Q335 749 344 748Q404 742 448 719T530 658Q540 650
531 642L501 613Q497 609 494 609T485 617Q463 644 426 663T345 688Q339 690 337 688T335 680V409Q335 399 346 394L380 382Q436 360 475 331T534 263T554 176V176ZM284 682Q284 693 273 690Q208 684 169 647T130 555Q130 529 142 507T183 463T264 419Q272 416
278 419T284 432V682ZM336 56Q336 49 344 50Q409 51 447 86T486 174Q486 223 455 256T352 318Q345 320 341 319T336 309V56V56Z" />
<glyph unicode="%" horiz-adv-x="909" d="M229 753Q278 753 316 728T375 656T397 541Q397 474 376 426T316 353T229 328Q180 328 142 353T81 426T59 541Q59 609 81 656T141 728T229 753V753ZM228 369Q283 369 313 417T344 540Q344 616 313 664T228 712Q192 712
167 690T127 630T112 540Q112 491 126 452T166 391T228 369V369ZM682 415Q731 415 768 390T827 318T849 203Q849 135 828 88T769 15T682 -10Q632 -10 594 15T534 87T512 203Q512 270 534 317T594 390T682 415V415ZM681 31Q716 31 741 53T781 114T796 202Q796 252
782 290T742 351T681 374Q646 374 620 352T580 290T565 202Q565 153 579 115T620 54T681 31V31ZM238 5Q233 -4 221 -4H199Q191 -4 190 1T193 13L679 744Q681 749 685 749T693 750H721Q725 750 727 748T726 740L238 5Z" />
<glyph unicode="&amp;" horiz-adv-x="762" d="M328 753Q378 753 418 736T483 685T507 605Q507 568 489 533T430 464T324 402Q317 398 317 395T321 385L491 186Q496 181 498 181T507 187Q526 206 547 232T589 287T624 342T645 387Q649 397 661 393L691 382Q696
380 698 376T699 368Q690 338 666 299T611 219T546 143Q541 138 542 135T548 127Q567 109 596 94T660 70T726 60Q739 60 739 48V16Q739 8 736 4T722 0Q685 0 642 12T560 43T494 83Q489 87 486 87T477 82Q430 41 375 18T256 -5Q156 -5 98 48T40 188Q40 247 74 297T190
396Q200 402 200 406T191 421Q158 457 141 493T124 568Q124 621 150 662T223 728T328 753V753ZM330 702Q287 702 257 684T211 635T195 571Q195 544 205 520T240 470L265 441Q267 438 272 438T282 440Q368 481 404 519T441 605Q441 654 409 678T330 702V702ZM259
350Q253 359 247 359T231 355Q176 329 144 285T112 189Q112 148 132 117T188 68T267 50Q313 50 357 69T434 118Q441 124 442 129T437 142L259 350V350Z" />
<glyph unicode="&apos;" horiz-adv-x="238" d="M142 540Q141 534 139 531T129 527H107Q101 527 99 529T96 537L73 733Q73 738 75 740T81 742H158Q166 742 166 734L142 540Z" />
<glyph unicode="(" horiz-adv-x="278" d="M252 742Q258 742 259 739T258 734Q209 636 176 520T142 284Q142 171 169 64T249 -156Q251 -159 250 -162T243 -165H217Q211 -165 206 -159Q165 -88 135 -19T89 125T73 285Q73 410 113 525T215 735Q221 742 229 742H252V742Z" />
<glyph unicode=")" horiz-adv-x="278" d="M26 742V742H49Q59 742 64 735Q126 641 166 526T206 285Q206 200 190 126T144 -18T73 -159Q68 -165 62 -165H36Q31 -165 30 -162T30 -156Q83 -43 110 64T137 284Q137 403 104 519T20 734Q19 736 20 739T26 742Z" />
<glyph unicode="*" horiz-adv-x="359" d="M187 547Q185 549 184 549T182 547L107 429Q106 427 103 427T96 429L67 449Q61 453 66 459L149 566Q150 568 150 569T146 572L33 605Q27 607 30 615L41 646Q43 653 50 649L157 608Q160 606 162 607T164 612L156 735Q156
738 158 740T164 742H204Q208 742 209 740T211 735L204 612Q204 605 209 607L320 654Q327 657 329 651L338 621Q340 612 335 611L223 573Q221 572 221 570T221 566L301 466Q303 462 303 459T298 453L271 433Q267 431 263 431T258 434L187 547Z" />
<glyph unicode="+" horiz-adv-x="551" d="M486 357Q486 346 472 346L76 345Q70 345 68 347T65 355V390Q65 400 72 400H477Q486 400 486 392V357ZM260 162Q249 162 249 176L248 572Q248 579 250 581T258 583H293Q302 583 302 576L303 171Q303 162 295 162H260Z" />
<glyph unicode="," horiz-adv-x="202" d="M51 -139Q47 -139 46 -136T46 -127L90 -14Q96 0 82 0H71Q60 0 60 10V90Q60 98 68 98H138Q146 98 146 90V19Q146 12 143 6L77 -130Q75 -135 71 -137T60 -139H51V-139Z" />
<glyph unicode="-" horiz-adv-x="381" d="M316 249Q316 237 302 237H76Q70 237 68 239T65 246V283Q65 293 73 293L307 294Q316 294 316 285V249Z" />
<glyph unicode="." horiz-adv-x="198" d="M141 14Q141 0 125 0H68Q55 0 55 12V88Q55 99 64 99H133Q141 99 141 89V14Z" />
<glyph unicode="/" horiz-adv-x="336" d="M21 -50Q12 -50 14 -43L265 734Q268 742 276 742H314Q325 742 321 728L74 -39Q72 -45 68 -47T59 -50H21V-50Z" />
<glyph unicode="0" horiz-adv-x="683" d="M342 752Q399 752 448 728T534 656T591 536T611 369Q611 243 576 159T479 33T341 -10Q264 -10 203 32T107 158T71 367Q71 463 92 534T150 655T236 728T342 752V752ZM343 51Q401 51 443 83T510 186T534 369Q534 483 510
554T442 658T342 692Q285 692 242 659T174 554T149 369Q149 257 173 187T242 84T343 51V51Z" />
<glyph unicode="1" horiz-adv-x="454" d="M401 62Q410 62 410 54V9Q410 6 408 3T400 0H62Q53 0 53 8V54Q53 62 61 62H194Q201 62 201 67V650Q201 660 193 657L63 608Q52 604 52 617V651Q52 657 53 659T60 663L204 735Q212 739 217 740T230 742H266Q276 742 276
731V69Q276 62 282 62H401V62Z" />
<glyph unicode="2" horiz-adv-x="588" d="M295 308Q335 348 363 380T410 440T436 496T445 553Q445 599 422 629T362 675T287 691Q258 691 226 681T164 650T111 593Q108 590 103 589T92 592L60 612Q53 617 53 621T57 632Q101 694 165 723T295 752Q354 752 404 731T487
664T519 548Q519 503 503 464T450 380T354 277L148 77Q142 72 144 69T154 65H516Q527 65 527 55V10Q527 5 525 3T516 0H67Q59 0 56 3T52 14V47Q52 54 53 59T60 71T74 85L295 308Z" />
<glyph unicode="3" horiz-adv-x="634" d="M80 641Q73 647 80 655Q112 689 147 710T221 742T304 752Q379 752 433 728T516 661T546 566Q546 510 512 466T417 401Q406 397 406 395T417 389Q458 378 493 353T548 289T569 203Q569 143 538 95T445 18T290 -10Q242 -10
199 1T119 34T48 91Q44 96 44 99T50 106L84 134Q90 139 93 138T98 134Q128 103 159 85T224 59T296 51Q391 51 442 92T494 199Q494 252 465 287T390 340T293 358L204 359Q193 359 193 367V409Q193 417 204 417L276 418Q331 418 375 437T446 489T472 563Q472 600
451 629T392 675T305 692Q252 692 207 672T123 614Q118 610 115 610T106 614L80 641V641Z" />
<glyph unicode="4" horiz-adv-x="638" d="M392 734Q396 738 400 740T412 742H465Q476 742 476 731V273Q476 265 483 265H581Q593 265 593 256V217Q593 205 580 205H484Q476 205 476 195V12Q476 0 462 0H411Q400 0 400 12V198Q400 205 391 205H61Q48 205 48 217V260Q48
266 51 272T61 288L392 734V734ZM388 265Q397 265 397 272V627Q397 639 394 640T383 631L122 278Q112 265 129 265H388Z" />
<glyph unicode="5" horiz-adv-x="649" d="M539 742Q548 742 550 740T552 730L548 687Q547 681 547 680T537 678H190Q180 678 179 668L161 427Q160 420 163 417T172 416Q208 435 247 451T343 467Q407 467 463 444T553 372T588 243Q588 163 552 107T452 20T308 -10Q237
-10 172 15T59 90Q54 95 54 98T60 107L94 135Q100 141 107 133Q136 108 163 89T222 59T297 49Q366 49 414 73T488 141T514 241Q514 299 490 336T424 390T335 408Q277 408 232 387T152 344Q144 340 143 341T135 345L97 368Q89 373 89 374T91 387L118 730Q119 738
121 740T137 742H539Z" />
<glyph unicode="6" horiz-adv-x="655" d="M369 752Q403 752 431 745T481 725T521 698T553 664Q555 661 556 657T551 650L507 629Q503 627 500 629T493 635Q471 661 442 676T370 691Q292 691 243 654T170 552T146 406Q146 390 149 385T163 386Q203 406 249 423T357
440Q434 440 488 412T569 334T597 223Q597 154 563 101T473 19T346 -10Q261 -10 200 34T105 160T71 361Q71 483 106 570T209 705T369 752V752ZM352 381Q324 381 290 375T224 358T170 333Q157 324 153 315T148 287Q148 251 160 210T196 132T258 72T348 49Q398 49
437 72T499 134T522 221Q522 265 502 301T444 359T352 381V381Z" />
<glyph unicode="7" horiz-adv-x="594" d="M535 742Q542 742 545 739T547 732V701Q547 694 544 687T535 670Q494 610 456 539T384 393T323 248T279 118T254 17Q252 0 240 0H182Q167 0 171 16Q185 72 209 145T268 303T352 480T459 665Q463 670 462 674T453 678H52Q43
678 44 688L49 733Q50 742 62 742H535Z" />
<glyph unicode="8" horiz-adv-x="665" d="M332 752Q404 752 457 727T539 656T569 548Q569 501 545 463T467 385Q453 376 466 370Q511 355 541 329T586 269T602 193Q602 132 568 86T473 15T330 -10Q248 -10 189 13T98 80T66 185Q66 238 93 281T180 363Q193 371
193 375T180 387Q151 402 130 424T98 476T86 541Q86 601 117 648T204 724T332 752V752ZM333 693Q284 693 245 674T182 622T158 546Q158 447 270 422L379 398Q393 395 413 406T454 440T487 491T500 551Q500 615 455 654T333 693V693ZM333 49Q422 49 474 87T527 192Q527
242 501 273T415 317L277 350Q262 353 239 343T192 311T152 259T135 191Q135 124 186 87T333 49V49Z" />
<glyph unicode="9" horiz-adv-x="651" d="M287 -10Q252 -10 223 -3T170 17T128 45T95 78Q93 81 93 85T97 92L140 113Q144 115 148 114T155 107Q177 81 208 66T287 51Q363 51 411 88T481 190T504 336Q504 353 502 357T488 356Q449 336 404 319T297 302Q222 302
169 330T87 408T59 519Q59 589 92 641T183 723T309 752Q393 752 453 708T547 582T580 381Q580 259 545 172T444 37T287 -10V-10ZM301 361Q332 361 365 367T430 387T482 415Q495 424 499 433T504 461Q504 496 493 536T457 612T396 670T308 693Q259 693 220 670T157
609T134 522Q134 478 154 441T212 383T301 361V361Z" />
<glyph unicode=":" horiz-adv-x="198" d="M141 420Q141 406 125 406H68Q55 406 55 418V493Q55 504 64 504H133Q141 504 141 494V420ZM141 17Q141 3 125 3H68Q55 3 55 16V90Q55 101 64 101H133Q141 101 141 91V17Z" />
<glyph unicode=";" horiz-adv-x="221" d="M51 -140Q47 -140 46 -137T46 -127L90 -14Q95 0 82 0H71Q60 0 60 10V90Q60 98 68 98H138Q146 98 146 90V19Q146 12 143 6L77 -131Q75 -135 71 -137T60 -140H51V-140ZM68 405Q55 405 55 417V492Q55 504 64 504H133Q141
504 141 494V419Q141 405 125 405H68V405Z" />
<glyph unicode="&lt;" horiz-adv-x="535" d="M467 182Q467 172 462 169T447 169L67 318Q62 321 59 324T56 332V380Q56 386 59 389T67 394L448 546Q458 550 463 547T468 534V497Q468 486 450 478L141 356L449 234Q459 230 463 226T467 215V182Z" />
<glyph unicode="=" horiz-adv-x="551" d="M486 456Q486 445 472 445L76 444Q70 444 68 446T65 454V489Q65 499 72 499L477 500Q486 500 486 492V456ZM486 233Q486 222 472 222L76 221Q70 221 68 223T65 231V266Q65 276 72 276H477Q486 276 486 268V233Z" />
<glyph unicode="&gt;" horiz-adv-x="535" d="M68 215Q68 222 72 226T87 234L394 356L86 478Q68 486 68 497V534Q68 543 73 546T88 546L468 394Q474 392 476 389T479 380V332Q479 327 476 324T468 318L88 169Q80 165 74 168T68 182V215V215Z" />
<glyph unicode="?" horiz-adv-x="519" d="M288 14Q288 0 272 0H215Q208 0 205 3T202 12V87Q202 98 211 98H280Q288 98 288 88V14ZM38 611Q34 613 33 616T34 622Q66 682 127 717T265 752Q332 752 381 730T456 667T483 572Q483 520 462 481T411 409T349 344T297
272T276 180Q276 176 273 173T266 169H226Q215 169 215 182Q215 239 235 281T284 358T343 425T393 491T413 570Q413 628 373 662T265 696Q229 696 194 683T133 648T95 599Q93 596 91 595T84 595L38 611Z" />
<glyph unicode="@" horiz-adv-x="834" d="M653 -46Q610 -77 555 -95T436 -113Q345 -113 274 -84T152 -4T76 116T50 261Q50 342 78 414T160 542T286 629T449 661Q513 661 575 643T689 585T770 485T800 340Q800 264 775 206T706 114T608 81Q570 81 549 93T520 136Q519
143 517 143T509 137Q487 107 453 87T368 67Q331 67 300 88T249 150T230 243Q230 307 254 359T322 443T421 475Q462 475 491 457T538 408Q540 407 542 407T545 411L554 444Q555 449 561 449H600Q608 449 606 443L568 217Q561 171 572 153T611 134Q646 134 675 158T723
227T741 334Q741 408 715 460T647 545T552 593T448 609Q369 609 306 581T199 505T132 394T109 259Q109 194 130 136T194 34T301 -36T448 -61Q492 -61 522 -54T576 -33T624 -3Q637 5 644 -4L660 -26Q665 -33 662 -38T653 -46V-46ZM293 246Q293 189 315 156T378 122Q412
122 441 142T491 195T518 269Q525 320 513 353T476 403T424 420Q385 420 356 397T310 334T293 246V246Z" />
<glyph unicode="A" horiz-adv-x="716" d="M57 0Q52 0 50 4T49 14L310 729Q313 736 317 739T328 742H388Q405 742 409 729L667 14Q670 9 667 5T658 0H607Q595 0 592 9L518 215Q517 219 515 221T507 223H203Q195 223 192 215L116 8Q115 4 112 2T103 0H57V0ZM485
284Q496 284 492 295L363 650Q359 659 356 659T348 649L217 294Q213 284 222 284H485Z" />
<glyph unicode="B" horiz-adv-x="693" d="M114 0Q109 0 107 2T104 10V729Q104 736 107 739T116 742H336Q466 742 536 693T607 550Q607 489 576 447T476 383Q473 382 473 379T476 374Q547 358 586 315T625 198Q625 98 551 49T341 0H114V0ZM336 58Q443 58 495 90T547
197Q547 251 521 283T450 331T348 346H192Q179 346 179 335V70Q179 58 188 58H336ZM348 404Q381 404 413 410T471 432T514 474T531 542Q531 615 478 649T334 684H191Q179 684 179 674V416Q179 404 188 404H348Z" />
<glyph unicode="C" horiz-adv-x="702" d="M377 752Q425 752 470 736T552 692T612 628T641 550Q642 544 641 542T634 539L576 534Q572 533 570 535T567 543Q551 609 501 650T379 692Q268 692 209 611T149 369Q149 214 208 133T386 52Q459 52 508 87T587 200Q589
204 596 203L645 190Q647 189 648 187T649 179Q640 149 623 121T582 69T527 27T460 0T381 -10Q284 -10 214 35T107 166T70 370Q70 490 107 575T212 706T377 752V752Z" />
<glyph unicode="D" horiz-adv-x="714" d="M117 742Q122 742 141 742T185 742T229 741T256 741Q395 740 480 699T605 577T645 378Q645 250 602 166T470 41T244 0H116Q104 0 104 13V730Q104 736 107 739T117 742V742ZM189 682Q179 682 179 668V69Q179 59 191 59H234Q352
59 425 89T532 189T566 371Q566 493 531 560T423 654T238 682H189V682Z" />
<glyph unicode="E" horiz-adv-x="622" d="M104 730Q104 742 115 742H550Q559 742 559 733L558 692Q558 682 548 682H191Q179 682 179 671V414Q179 404 190 404H461Q470 404 470 395V353Q470 349 469 347T461 345H189Q179 345 179 335V70Q179 60 189 60H562Q573
60 573 51V9Q573 5 571 3T563 0H116Q104 0 104 12V730V730Z" />
<glyph unicode="F" horiz-adv-x="594" d="M104 730Q104 742 115 742H540Q549 742 549 733V692Q549 682 538 682H191Q179 682 179 671V401Q179 392 190 392H470Q479 392 479 383V342Q479 333 469 333H189Q179 333 179 323V11Q179 0 168 0H116Q109 0 107 2T104 12V730V730Z" />
<glyph unicode="G" horiz-adv-x="735" d="M374 -10Q280 -10 212 35T107 164T70 368Q70 490 108 576T215 707T377 752Q444 752 501 725T596 652T641 555Q642 549 641 547T635 542L578 533Q574 532 572 534T569 541Q561 584 535 618T468 672T376 692Q303 692 253
655T176 547T149 374Q149 267 175 195T252 87T378 51Q430 51 469 69T534 117T573 182T588 249V316Q589 326 578 326H404Q399 326 397 328T395 334V369Q395 377 402 377H646Q651 377 654 374T657 367V12Q657 5 654 3T646 0H625Q619 0 615 1T609 11L603 109Q602 114
600 114T594 109Q575 76 545 49T473 6T374 -10V-10Z" />
<glyph unicode="H" horiz-adv-x="731" d="M187 355Q179 355 179 347V12Q179 0 166 0H116Q109 0 107 3T104 12V730Q104 742 115 742H169Q179 742 179 730V427Q179 416 190 416H542Q552 416 552 426V731Q552 742 561 742H616Q627 742 627 730V12Q627 6 625 3T615
0H565Q552 0 552 12V346Q552 355 543 355H187Z" />
<glyph unicode="I" horiz-adv-x="283" d="M169 742Q179 742 179 730V15Q179 6 176 3T164 0H118Q109 0 107 2T104 12V730Q104 742 115 742H169Z" />
<glyph unicode="J" horiz-adv-x="410" d="M310 155Q310 76 276 33T162 -10Q123 -10 93 -1T52 13Q48 15 46 18T44 27L53 72Q54 82 63 79Q79 73 97 65T149 57Q196 57 215 81T235 173V731Q235 742 245 742H301Q310 742 310 730V155V155Z" />
<glyph unicode="K" horiz-adv-x="690" d="M643 11Q645 6 644 3T638 0H574Q563 0 559 7L323 391Q317 399 309 390L187 253Q179 245 179 235V12Q179 0 166 0H117Q110 0 107 2T104 12V732Q104 742 114 742H170Q179 742 179 732V347Q179 341 181 341T188 345L538 735Q541
739 544 740T555 742H611Q618 742 619 739T617 731L373 461Q370 457 373 451L643 11V11Z" />
<glyph unicode="L" horiz-adv-x="596" d="M104 730Q104 742 115 742H169Q179 742 179 730V70Q179 60 189 60H542Q552 60 552 51V9Q552 5 550 3T542 0H116Q109 0 107 3T104 12V730V730Z" />
<glyph unicode="M" horiz-adv-x="895" d="M116 0Q104 0 104 13V730Q104 742 115 742H182Q189 742 192 740T198 732L438 120Q442 110 446 110T454 120L696 731Q700 742 709 742H781Q791 742 791 730V13Q791 0 778 0H728Q722 0 719 2T716 12V602Q716 607 714 606T711
602L479 12Q475 0 462 0H422Q407 0 402 11L175 596Q173 600 172 600T170 596V11Q170 6 168 3T158 0H116V0Z" />
<glyph unicode="N" horiz-adv-x="756" d="M642 742Q652 742 652 731V11Q652 6 650 3T641 0H606Q600 0 595 1T586 7L183 597Q178 604 175 603T171 596V11Q171 0 159 0H116Q104 0 104 12V730Q104 742 115 742H157Q164 742 167 741T175 733L571 151Q577 144 581 146T586
154V731Q586 742 596 742H642Z" />
<glyph unicode="O" horiz-adv-x="762" d="M381 -10Q284 -10 215 33T108 161T70 367Q70 491 108 577T216 707T382 752Q478 752 547 708T653 578T691 369Q691 247 654 163T547 34T381 -10V-10ZM383 51Q497 51 554 129T612 369Q612 533 554 612T382 692Q267 692 208
612T149 369Q149 207 208 129T383 51V51Z" />
<glyph unicode="P" horiz-adv-x="683" d="M626 529Q626 456 592 409T499 340T364 317H188Q179 317 179 308V12Q179 0 167 0H115Q109 0 107 2T104 11V730Q104 742 115 742H354Q433 742 494 721T591 652T626 529V529ZM548 532Q548 588 524 621T456 668T351 683H191Q179
683 179 672V389Q179 377 188 377H358Q444 377 496 413T548 532V532Z" />
<glyph unicode="Q" horiz-adv-x="762" d="M70 369Q70 493 107 578T215 708T381 752Q477 752 547 708T654 579T691 369Q691 241 653 161T546 35Q541 31 541 26Q541 14 560 -5T609 -41T674 -62Q680 -63 681 -65T683 -71V-107Q683 -117 678 -120T659 -123Q619 -123
571 -98T475 -6Q470 1 460 -2Q441 -5 421 -7T381 -10Q286 -10 217 32T109 160T70 369V369ZM149 367Q149 206 208 129T381 51Q495 51 554 128T613 369Q613 529 555 610T381 692Q266 692 208 611T149 367V367Z" />
<glyph unicode="R" horiz-adv-x="689" d="M616 17Q618 11 615 6T606 0H551Q542 0 537 11L402 334Q398 345 380 345H191Q184 345 182 342T179 334V14Q179 0 166 0H117Q109 0 107 3T104 12V730Q104 742 115 742H385Q499 742 562 695T625 553Q625 495 603 456T547
393T477 360Q470 359 473 351L616 17V17ZM354 403Q450 403 498 436T547 545Q547 616 505 650T382 684H192Q179 684 179 675V414Q179 403 188 403H354V403Z" />
<glyph unicode="S" horiz-adv-x="631" d="M499 613Q471 646 428 669T323 692Q245 692 199 656T153 555Q153 538 160 516T192 471T266 431L408 382Q498 352 535 304T573 190Q573 127 542 82T454 14T316 -10Q258 -10 210 4T123 45T56 114Q51 120 52 125T62 137L88
155Q97 160 101 160T111 154Q138 120 165 97T227 62T314 50Q397 50 448 81T499 184Q499 211 489 232T454 273T378 311L227 366Q172 386 140 415T94 479T80 549Q80 613 110 658T196 727T324 752Q373 752 413 740T489 707T551 654Q554 650 555 646T551 637L515 608Q510
605 508 606T499 613V613Z" />
<glyph unicode="T" horiz-adv-x="636" d="M44 732Q44 737 46 739T54 742H582Q588 742 590 740T592 732V691Q592 682 582 682H375Q364 682 364 673V12Q364 0 354 0H300Q289 0 289 12V673Q289 682 279 682H54Q44 682 44 691V732Z" />
<glyph unicode="U" horiz-adv-x="706" d="M612 240Q612 155 583 99T496 17T353 -10Q263 -10 206 19T122 107T94 256V729Q94 742 104 742H158Q170 742 170 730V236Q170 143 217 97T358 51Q420 51 462 71T526 133T548 239V731Q548 742 558 742H602Q612 742 612 731V240V240Z"
/>
<glyph unicode="V" horiz-adv-x="700" d="M643 742Q649 742 651 739T651 730L394 13Q390 0 375 0H322Q304 0 300 12L49 729Q47 735 49 738T58 742H109Q120 742 124 732L344 99Q352 79 359 100L584 733Q587 742 597 742H643V742Z" />
<glyph unicode="W" horiz-adv-x="1035" d="M975 742Q982 742 984 738T986 728L779 13Q775 0 760 0H711Q694 0 690 12L521 612Q520 617 519 617T515 612L344 13Q340 0 325 0H275Q258 0 254 12L51 727Q50 734 53 738T63 742H111Q118 742 121 740T126 732L298 116Q301
106 304 106T310 117L485 733Q487 736 490 739T501 742H545Q553 742 556 740T560 732L733 115Q736 106 739 106T745 115L920 733Q921 738 925 740T935 742H975V742Z" />
<glyph unicode="X" horiz-adv-x="677" d="M625 17Q632 7 630 4T620 0H560Q552 0 547 7L345 308Q340 317 336 317T323 305L124 7Q122 3 118 2T110 0H57Q50 0 48 3T52 17L287 368Q292 374 292 379T286 391L59 730Q57 733 58 737T64 742H128Q135 742 137 741T142
735L330 451Q335 445 339 445T348 452L536 735Q538 739 541 740T549 742H608Q614 742 614 739T612 732L385 395Q382 390 382 386T385 375L625 17V17Z" />
<glyph unicode="Y" horiz-adv-x="660" d="M607 742Q613 742 615 739T614 729L376 328Q372 323 372 318T371 301V16Q371 0 353 0H310Q301 0 298 3T295 13V294Q295 303 294 307T289 318L46 727Q43 734 45 738T56 742H108Q116 742 119 740T127 731L323 396Q329 384
334 384T346 394L540 731Q545 738 548 740T559 742H607V742Z" />
<glyph unicode="Z" horiz-adv-x="619" d="M61 0Q55 0 53 2T50 10V30Q50 37 52 41T60 52L461 673Q466 682 457 682H73Q68 682 66 684T64 691V734Q64 742 72 742H558Q567 742 567 734V711Q567 706 565 703T560 694L153 69Q150 65 151 63T156 60H557Q566 60 566 53V9Q566
5 564 3T556 0H61V0Z" />
<glyph unicode="[" horiz-adv-x="279" d="M96 733Q96 742 107 742H256Q264 742 264 736V701Q264 694 256 694H169Q159 694 159 683L158 -108Q158 -114 159 -115T167 -117H254Q263 -117 263 -126V-155Q263 -165 254 -165H109Q97 -165 97 -154L96 733V733Z" />
<glyph unicode="\" horiz-adv-x="336" d="M276 -50Q271 -50 268 -48T262 -39L15 728Q10 742 22 742H59Q68 742 70 734L321 -43Q324 -50 314 -50H276V-50Z" />
<glyph unicode="]" horiz-adv-x="279" d="M183 733V733L182 -154Q182 -165 170 -165H25Q16 -165 16 -155V-126Q16 -117 25 -117H113Q118 -117 119 -116T121 -108L120 683Q120 694 110 694H23Q15 694 15 701V736Q15 742 23 742H172Q183 742 183 733Z" />
<glyph unicode="^" horiz-adv-x="476" d="M243 439Q241 445 237 445T231 439L113 143Q112 139 109 138T101 136H61Q50 136 55 148L200 504Q209 527 222 535T250 537T274 504L420 145Q424 134 413 134H375Q370 134 366 136T360 142L243 439Z" />
<glyph unicode="_" horiz-adv-x="511" d="M446 -99Q446 -111 432 -111H76Q70 -111 68 -109T65 -101V-65Q65 -55 72 -55L437 -54Q446 -54 446 -63V-99Z" />
<glyph unicode="`" horiz-adv-x="280" d="M24 747Q27 754 35 751L265 659Q272 656 269 647L262 627Q261 622 258 621T248 621L20 692Q8 696 12 707L24 747V747Z" />
<glyph unicode="a" horiz-adv-x="544" d="M393 67Q354 29 309 10T210 -10Q132 -10 87 29T42 135Q42 187 71 224T157 284T298 312L387 319Q395 320 399 323T404 334V363Q404 421 368 455T270 489Q223 489 185 468T116 404Q113 400 111 399T103 399L62 416Q59 418
58 420T61 429Q92 479 144 509T273 540Q336 540 379 520T445 460T468 368V13Q468 5 466 3T456 0H419Q413 0 410 3T407 13L405 65Q403 79 393 67V67ZM404 259Q404 276 390 274L315 268Q263 265 225 255T160 229T121 192T108 142Q108 95 141 69T230 42Q264 42 296
54T353 86Q377 107 390 129T404 171V259V259Z" />
<glyph unicode="b" horiz-adv-x="596" d="M96 0Q89 0 86 3T83 15V730Q83 742 94 742H139Q149 742 149 729V481Q149 471 152 470T163 475Q170 483 190 498T245 526T328 540Q403 540 450 504T520 406T543 267Q543 139 483 65T315 -10Q267 -10 234 4T180 38T151 68Q147
73 144 73T141 65L137 15Q135 0 120 0H96ZM149 178Q149 141 171 110T229 60T303 41Q351 41 389 64T451 138T474 267Q474 370 433 429T310 488Q260 488 218 465T149 409V178Z" />
<glyph unicode="c" horiz-adv-x="540" d="M296 540Q346 540 383 525T450 484T499 423Q504 413 496 410L454 396Q447 393 442 401Q419 432 397 450T352 478T301 488Q246 488 205 461T141 383T118 265Q118 197 141 147T205 69T302 42Q352 42 389 66T457 139Q460
143 462 144T469 143L504 127Q510 124 507 115Q491 88 470 65T422 26T365 0T296 -10Q224 -10 168 24T81 120T50 263Q50 344 81 406T169 504T296 540V540Z" />
<glyph unicode="d" horiz-adv-x="596" d="M462 0Q456 0 453 3T449 13V59Q449 67 446 68T437 63Q427 53 407 36T355 4T277 -10Q214 -10 163 19T82 108T51 256Q51 341 81 404T165 504T289 540Q341 540 374 523T432 486Q441 479 444 481T447 493V730Q447 742 458
742H503Q513 742 513 731V14Q513 6 510 3T499 0H462V0ZM447 418Q413 451 379 469T302 488Q249 488 208 462T143 384T119 260Q119 184 143 136T208 64T295 41Q338 41 372 62T427 113T447 171V418V418Z" />
<glyph unicode="e" horiz-adv-x="579" d="M119 235Q119 184 144 140T210 70T304 43Q359 43 399 65T468 130Q471 135 474 135T481 134L515 115Q523 111 516 103Q491 65 460 40T388 3T300 -10Q226 -10 170 24T82 119T50 260Q50 348 83 410T172 506T299 540Q371 540
424 508T506 416T535 271Q535 264 534 257T521 250H126Q123 250 121 246T119 235V235ZM451 297Q462 297 465 300T468 311Q468 359 448 399T390 464T300 489Q241 489 201 461T141 388T120 297H451Z" />
<glyph unicode="f" horiz-adv-x="373" d="M340 530Q344 530 346 528T348 521V487Q348 479 339 479H218Q210 479 210 471V13Q210 0 200 0H154Q144 0 144 12V471Q144 479 138 479H33Q25 479 25 487V521Q25 525 27 527T34 530H136Q144 530 144 539V615Q144 678 173
710T265 742H343Q353 742 353 732V701Q353 696 351 694T343 692H269Q236 692 223 672T209 616V538Q209 530 217 530H340V530Z" />
<glyph unicode="g" horiz-adv-x="594" d="M546 535Q557 535 561 532T565 520V495Q565 486 562 482T547 477Q529 477 517 475T494 467Q469 456 474 444Q478 432 485 415T492 370Q492 326 470 289T401 231T281 209Q228 209 198 203T155 186T142 164Q142 147 165
140T241 129L366 122Q451 117 490 81T530 -15Q530 -91 465 -133T280 -175Q158 -175 94 -138T29 -31Q29 4 52 33T121 87Q133 92 121 98Q101 107 90 121T79 153Q79 166 87 179T111 203T153 223Q159 225 159 228T152 235Q110 258 90 291T69 370Q69 448 126 493T289
538Q340 538 375 527T436 493Q441 489 446 489T456 493Q467 502 481 512T512 528T546 535V535ZM282 256Q356 256 392 286T429 371Q429 428 393 459T282 491Q210 491 171 460T132 371Q132 315 171 286T282 256V256ZM190 73Q173 74 150 62T108 28T90 -24Q90 -57 113
-80T180 -116T289 -129Q376 -129 421 -103T466 -22Q466 15 443 37T361 63L190 73Z" />
<glyph unicode="h" horiz-adv-x="581" d="M95 0Q83 0 83 12V731Q83 742 93 742H136Q146 742 146 732V462Q146 457 148 456T155 459Q191 486 220 504T279 531T343 540Q422 540 463 499T504 390V13Q504 0 492 0H450Q444 0 441 3T438 12V373Q438 426 412 455T327
485Q295 485 268 476T212 448T149 400V12Q149 0 136 0H95V0Z" />
<glyph unicode="i" horiz-adv-x="232" d="M149 15Q149 6 146 3T133 0H96Q88 0 86 2T83 12V518Q83 530 94 530H138Q149 530 149 518V15ZM153 651Q153 633 138 633H92Q84 633 82 637T79 649V727Q79 742 92 742H140Q153 742 153 728V651Z" />
<glyph unicode="j" horiz-adv-x="232" d="M149 -38Q149 -105 122 -137T20 -170Q-23 -170 -34 -168T-45 -158V-124Q-45 -120 -43 -118T-37 -115L17 -113Q52 -112 67 -95T83 -33V518Q83 530 95 530H139Q149 530 149 518V-38V-38ZM153 651Q153 633 138 633H92Q79
633 79 649V727Q79 742 92 742H140Q153 742 153 728V651Z" />
<glyph unicode="k" horiz-adv-x="553" d="M522 15Q526 8 525 4T515 0H461Q456 0 452 2T446 10L281 283Q280 286 278 287T271 283L156 167Q152 163 151 159T149 148V15Q149 6 146 3T134 0H97Q88 0 86 2T83 12V730Q83 742 94 742H139Q149 742 149 730V252Q149 244
151 243T159 248L422 519Q432 530 441 530H490Q499 530 500 525T494 513L331 347Q329 344 328 341T330 332L522 15V15Z" />
<glyph unicode="l" horiz-adv-x="232" d="M149 15Q149 6 146 3T134 0H96Q83 0 83 12L84 730Q84 742 94 742H139Q149 742 149 730V15Z" />
<glyph unicode="m" horiz-adv-x="902" d="M95 0Q83 0 83 12V519Q83 530 93 530H136Q146 530 146 520V461Q146 456 148 455T155 458Q188 484 216 502T272 530T335 540Q396 540 431 513T477 453Q479 449 483 450T491 455Q525 482 553 501T611 530T674 540Q747 540
786 499T826 390V13Q826 0 813 0H771Q766 0 763 3T760 12V373Q760 426 736 455T657 485Q625 485 596 474T544 445T503 413Q494 406 491 400T487 383V13Q487 0 475 0H433Q427 0 424 3T421 12V373Q421 426 397 455T318 485Q273 485 236 464T149 400V12Q149 0 136
0H95V0Z" />
<glyph unicode="n" horiz-adv-x="581" d="M95 0Q83 0 83 12V519Q83 530 93 530H136Q146 530 146 520V461Q146 456 148 455T155 458Q190 484 219 502T278 530T343 540Q422 540 463 499T504 391V13Q504 0 492 0H450Q444 0 441 3T438 12V373Q438 426 412 455T327
485Q295 485 268 476T212 448T149 400V12Q149 0 136 0H95V0Z" />
<glyph unicode="o" horiz-adv-x="598" d="M299 -10Q225 -10 169 24T81 120T50 262Q50 344 81 406T169 504T300 540Q375 540 430 505T517 408T548 264Q548 183 517 122T430 25T299 -10V-10ZM301 43Q357 43 397 70T458 147T480 264Q480 332 458 382T396 460T300
488Q245 488 204 461T141 383T118 264Q118 197 140 147T204 70T301 43V43Z" />
<glyph unicode="p" horiz-adv-x="594" d="M135 530Q147 530 147 517V471Q147 463 150 462T160 467Q170 478 188 495T239 526T319 540Q382 540 432 511T512 423T542 274Q542 186 513 123T432 25T308 -10Q260 -10 224 5T164 40Q155 48 152 46T149 33V-153Q149 -165
138 -165H93Q83 -165 83 -154V516Q83 524 86 527T97 530H135V530ZM149 112Q182 79 217 60T294 41Q347 41 387 68T450 146T474 271Q474 348 450 395T387 466T301 489Q256 489 222 469T168 421T149 364V112V112Z" />
<glyph unicode="q" horiz-adv-x="597" d="M500 530Q508 530 511 527T514 515V-153Q514 -165 503 -165H457Q448 -165 448 -153V33Q448 45 446 47T433 41Q407 21 368 6T282 -10Q211 -10 160 24T80 121T52 267Q52 350 79 411T158 506T282 540Q335 540 367 527T418
497T447 470Q456 461 458 473L463 515Q465 524 468 527T480 530H500ZM448 352Q448 387 428 418T374 470T295 490Q248 490 208 466T144 393T120 268Q120 196 143 146T205 68T297 41Q340 41 379 59T448 111V352Z" />
<glyph unicode="r" horiz-adv-x="372" d="M95 0Q89 0 86 3T83 12V519Q83 530 93 530H136Q145 530 145 520V454Q145 449 148 448T155 451Q182 483 208 502T259 531T311 540Q347 540 347 528V482Q347 474 339 475Q332 476 323 477T300 478Q277 478 251 468T202 439T164
399T149 354V12Q149 0 136 0H95V0Z" />
<glyph unicode="s" horiz-adv-x="507" d="M399 418Q377 450 340 469T250 489Q192 489 154 465T115 397Q115 374 132 354T203 316L333 276Q398 257 428 223T458 142Q458 97 431 63T355 10T247 -10Q171 -10 113 21T29 101Q27 105 27 108T31 114L63 133Q67 135 70
135T76 131Q93 104 117 84T173 53T248 42Q289 42 322 53T374 86T394 135Q394 165 370 186T287 224L185 254Q109 276 81 309T52 385Q52 432 77 466T148 520T251 540Q316 540 367 515T446 447Q449 444 449 441T445 436L411 416Q408 415 405 415T399 418V418Z" />
<glyph unicode="t" horiz-adv-x="375" d="M202 479Q194 479 194 471V135Q194 84 210 68T257 52H330Q335 52 337 50T340 42V15Q340 7 330 4Q321 3 304 2T269 1T243 0Q181 0 155 28T128 121V470Q128 479 119 479H34Q25 479 25 487V522Q25 530 33 530H122Q128 530
129 538L139 698Q139 710 148 710H184Q195 710 195 697V538Q195 530 202 530H334Q342 530 342 522V487Q342 479 333 479H202Z" />
<glyph unicode="u" horiz-adv-x="576" d="M252 45Q299 45 341 70T427 139V518Q427 530 440 530H482Q493 530 493 518V11Q493 0 483 0H440Q430 0 430 10V71Q430 76 428 77T421 74Q363 25 321 8T237 -10Q191 -10 155 8T97 61T75 140V517Q75 530 88 530H130Q141 530
141 518V162Q141 110 170 78T252 45V45Z" />
<glyph unicode="v" horiz-adv-x="540" d="M501 530Q507 530 509 527T510 518L305 13Q300 0 284 0H257Q239 0 234 12L30 517Q29 523 31 526T40 530H86Q92 530 95 528T100 520L268 102Q275 83 284 103L451 521Q453 526 456 528T464 530H501V530Z" />
<glyph unicode="w" horiz-adv-x="791" d="M748 530Q754 530 756 527T757 518L606 12Q605 5 601 3T588 0H549Q533 0 529 12L402 411Q398 420 396 420T391 411L270 12Q269 5 265 3T253 0H211Q195 0 191 12L34 517Q32 523 34 526T44 530H88Q94 530 97 528T102 520L230
104Q233 94 237 94T244 105L370 522Q372 526 375 528T383 530H420Q425 530 429 528T434 520L566 104Q569 94 573 94T580 105L702 521Q704 526 708 528T717 530H748V530Z" />
<glyph unicode="x" horiz-adv-x="532" d="M497 17Q504 7 503 4T494 0H438Q426 0 421 7L271 214Q266 220 263 220T254 214L97 7Q92 0 80 0H42Q33 0 30 4T35 20L222 257Q227 263 227 267T222 277L45 517Q42 521 44 525T52 530H104Q111 530 114 529T120 523L266 327Q273
316 281 327L423 523Q425 527 428 528T439 530H481Q488 530 488 527T486 519L312 287Q307 281 307 277T312 266L497 17V17Z" />
<glyph unicode="y" horiz-adv-x="521" d="M107 -165Q78 -165 61 -164T44 -153V-124Q44 -117 49 -115T73 -112H135Q158 -112 176 -96T207 -56T223 -7T220 36L30 515Q28 521 30 525T40 530H85Q91 530 94 528T99 520L259 109Q263 100 268 100T277 113L433 521Q435
526 438 528T446 530H482Q488 530 490 526T491 518L267 -59Q255 -91 239 -111T204 -143T160 -160T107 -165V-165Z" />
<glyph unicode="z" horiz-adv-x="472" d="M42 0Q37 0 35 2T33 10V36Q33 43 35 48T43 62L347 472Q354 481 343 481H65Q59 481 57 483T55 490V521Q55 530 63 530H423Q430 530 430 522V493Q430 486 428 481T422 468L117 58Q110 49 120 49H427Q436 49 436 41V10Q436
5 434 3T425 0H42V0Z" />
<glyph unicode="{" horiz-adv-x="290" d="M116 645Q116 674 130 696T171 730T236 742H266Q275 742 275 736V701Q275 694 266 694H243Q218 694 204 688T185 671T179 641V415Q179 376 165 350T129 310T81 293Q75 292 75 290T81 286Q107 284 129 272T165 234T179
166V-62Q179 -90 193 -103T244 -117H265Q275 -117 275 -126V-155Q275 -165 265 -165H237Q198 -165 171 -153T130 -117T116 -66V163Q116 187 104 211T67 250T5 266Q0 266 0 274V305Q0 313 5 313Q61 314 88 344T116 420V645V645Z" />
<glyph unicode="|" horiz-adv-x="263" d="M115 -165Q105 -165 105 -155L104 837Q104 842 106 844T113 847H149Q159 847 159 836V-155Q159 -165 150 -165H115Z" />
<glyph unicode="}" horiz-adv-x="290" d="M174 645V645V420Q174 375 201 345T284 313Q290 313 290 305V274Q290 266 284 266Q247 266 223 251T186 211T174 163V-66Q174 -94 160 -117T120 -152T53 -165H25Q15 -165 15 -155V-126Q15 -117 25 -117H46Q84 -117 97
-104T111 -62V166Q111 208 125 233T161 271T208 286Q215 287 215 289T208 293Q183 296 161 309T125 349T111 415V641Q111 659 105 670T85 688T47 694H23Q15 694 15 701V736Q15 742 23 742H54Q91 742 118 730T159 696T174 645Z" />
<glyph unicode="~" horiz-adv-x="557" d="M490 372Q477 355 449 340T376 325Q346 325 323 332T279 350T237 367T189 374Q152 374 128 360T87 330Q83 326 81 326T76 332L64 359Q60 367 66 371Q90 392 117 408T186 424Q214 424 237 417T283 400T327 383T376 375Q413
375 433 388T467 415Q475 424 481 413L493 387Q496 383 495 380T490 372V372Z" />
<glyph unicode="&#xa0;" horiz-adv-x="217" />
<glyph unicode="&#xa1;" horiz-adv-x="239" d="M163 442Q163 432 154 432H86Q77 432 77 443V518Q77 530 89 530H147Q163 530 163 516V442V442ZM161 -157Q161 -160 159 -162T153 -165H87Q84 -165 82 -163T80 -155L96 353Q97 358 99 360T107 363H130Q137 363 140
361T144 352L161 -157V-157Z" />
<glyph unicode="&#xa2;" horiz-adv-x="558" d="M315 16Q315 0 299 0H275Q261 0 261 14V121Q261 133 273 133H304Q315 133 315 122V16V16ZM315 624Q315 609 299 609H275Q261 609 261 623V730Q261 742 273 742H304Q315 742 315 731V624V624ZM296 651Q346 651 383
636T450 595T499 534Q504 524 496 521L454 507Q447 504 442 512Q419 543 397 561T352 589T301 599Q246 599 205 572T141 494T118 376Q118 308 141 258T205 180T302 153Q352 153 389 177T457 250Q460 254 462 255T469 254L504 238Q510 235 507 226Q491 199 470 176T422
137T365 111T296 101Q224 101 168 135T81 231T50 374Q50 455 81 517T169 615T296 651V651Z" />
<glyph unicode="&#xa3;" horiz-adv-x="608" d="M22 0Q12 0 12 10V51Q12 59 20 59H52Q92 58 120 96T148 218Q148 242 145 275T136 350Q135 356 130 356H38Q32 356 32 363V397Q32 404 38 404H118Q127 404 125 411L109 485Q95 547 106 596T146 680T217 733T308 752Q351
752 390 738T458 701T499 649Q501 644 499 643T492 639L450 623Q441 620 438 627Q422 656 393 673T315 691Q276 691 244 676T193 632T174 562Q174 524 182 481T199 412Q201 405 206 405H368Q375 405 375 399V363Q375 356 368 356H217Q208 356 209 349Q214 321 216
293T218 234Q218 185 208 151T186 97T166 68Q162 64 163 62T169 60H358Q410 60 443 77T495 135Q500 143 508 141L546 130Q556 126 553 119Q531 60 481 30T361 0H22V0Z" />
<glyph unicode="&#xa4;" horiz-adv-x="527" d="M263 191Q206 191 161 223Q153 228 148 221L105 178Q96 170 86 178L67 198Q59 207 67 215L110 258Q116 265 110 274Q97 296 89 320T81 373Q81 402 89 427T112 474Q117 482 111 487L69 530Q61 540 69 549L88 568Q97
577 105 568L149 525Q154 519 161 524Q183 538 208 546T262 554Q318 554 363 522Q371 519 376 523L423 571Q430 577 436 571L461 545Q466 539 461 533L412 485Q408 481 412 474Q426 453 434 427T443 373Q443 345 435 320T412 273Q408 266 413 260L461 214Q467 207
461 201L436 176Q430 170 425 176L378 222Q371 228 366 225Q344 209 318 200T263 191V191ZM264 248Q300 248 328 265T372 311T389 373Q389 406 373 434T328 480T264 498Q229 498 201 481T156 435T139 373Q139 340 155 312T200 266T264 248V248Z" />
<glyph unicode="&#xa5;" horiz-adv-x="596" d="M574 742Q580 742 582 739T581 729L345 335Q341 330 341 325T340 308V16Q340 0 322 0H278Q270 0 267 3T264 13V297Q264 307 263 311T258 321L17 727Q13 734 15 738T27 742H82Q90 742 93 740T101 731L296 395Q301
386 304 386T313 394L511 731Q515 738 518 740T530 742H574V742ZM498 305Q498 293 484 293H117Q111 293 109 295T106 303V331Q106 341 113 341L489 342Q498 342 498 333V305ZM498 160Q498 149 484 149L117 148Q111 148 109 150T106 158V186Q106 196 113 196L489
197Q498 197 498 189V160Z" />
<glyph unicode="&#xa6;" horiz-adv-x="263" d="M115 440Q105 440 105 449L104 837Q104 842 106 844T113 847H149Q159 847 159 836V449Q159 440 150 440H115ZM115 -165Q105 -165 105 -155L104 232Q104 237 106 239T113 242H149Q159 242 159 231V-155Q159 -165 150
-165H115Z" />
<glyph unicode="&#xa7;" horiz-adv-x="483" d="M346 200Q393 174 418 143T443 69Q443 30 420 -2T353 -52T252 -71Q185 -71 128 -41T43 39Q41 43 41 46T43 50L78 70Q82 72 85 72T90 67Q115 30 156 6T253 -19Q307 -19 342 3T378 65Q378 93 356 118T269 169L176 205Q110
231 81 266T52 348Q52 395 82 429T158 481Q115 503 93 525T62 569T53 616Q53 655 76 685T141 734T238 752Q301 752 349 724T422 659Q425 655 425 653T421 648L389 630Q385 627 382 627T375 631Q351 661 318 680T243 700Q184 700 152 679T119 621Q119 598 136 574T210
527L297 492Q375 460 408 421T442 330Q442 278 413 248T346 200V200ZM275 232Q303 230 326 241T363 274T378 319Q378 353 362 379T286 429L225 453Q195 450 170 436T129 401T114 356Q114 326 132 305T208 260L275 232V232Z" />
<glyph unicode="&#xa8;" horiz-adv-x="222" d="M80 651Q80 643 77 640T65 637H23Q15 637 13 639T10 649V730Q10 742 21 742H70Q80 742 80 731V651ZM212 651Q212 643 209 640T197 637H155Q147 637 145 639T142 649V730Q142 742 152 742H202Q212 742 212 731V651Z" />
<glyph unicode="&#xa9;" horiz-adv-x="830" d="M415 -10Q336 -10 267 19T146 101T64 222T34 371Q34 450 63 519T145 640T267 722T415 752Q494 752 563 723T684 641T766 519T796 371Q796 292 767 223T685 101T563 20T415 -10V-10ZM415 43Q480 43 539 66T643 132T714
236T740 371Q740 445 715 505T644 609T539 676T415 700Q348 700 289 677T185 610T115 506T90 371Q90 296 115 236T185 133T289 66T415 43V43ZM417 589Q455 589 485 576T538 540T578 492Q580 487 579 485T575 482L535 467Q530 466 526 473Q506 505 480 523T421 541Q362
541 325 496T287 375Q287 298 325 253T422 208Q461 208 491 229T540 283Q543 289 550 285L579 273Q584 270 582 263Q570 241 554 223T516 190T471 168T417 159Q360 159 317 186T250 261T225 373Q225 437 250 485T318 561T417 589V589Z" />
<glyph unicode="&#xaa;" horiz-adv-x="403" d="M189 749Q253 749 285 719T318 636V472Q318 458 319 448T326 421Q329 416 326 414T317 411H284Q279 411 277 413T274 419L269 452Q268 458 259 452Q234 429 210 417T152 405Q100 405 71 429T42 497Q42 546 82 573T204
608L257 613Q268 614 268 622V638Q268 709 185 709Q157 709 136 699T97 662Q94 657 88 659L54 670Q53 672 53 674T53 680Q71 712 105 730T189 749V749ZM94 499Q94 475 114 460T168 444Q210 444 242 473Q254 485 261 496T268 520V567Q268 577 258 576L214 572Q154
568 124 549T94 499V499Z" />
<glyph unicode="&#xab;" horiz-adv-x="436" d="M385 81Q389 75 376 75H355Q348 75 345 80L215 248Q208 257 214 265L346 443Q348 447 350 447T355 448H379Q382 448 384 446T385 439L280 264Q276 256 280 250L385 81ZM211 81Q215 75 203 75H181Q174 75 172 80L41
248Q34 257 40 265L172 443Q175 447 176 447T181 448H205Q209 448 211 446T211 439L106 264Q102 256 106 250L211 81Z" />
<glyph unicode="&#xac;" horiz-adv-x="551" d="M486 357Q486 346 472 346L76 345Q70 345 68 347T65 355V390Q65 400 72 400H477Q486 400 486 392V357ZM486 213Q486 202 475 202H439Q429 202 429 210L428 377Q428 386 436 386H476Q486 386 486 375V213Z" />
<glyph unicode="&#xad;" horiz-adv-x="381" d="M316 249Q316 237 302 237H76Q70 237 68 239T65 246V283Q65 293 73 293L307 294Q316 294 316 285V249Z" />
<glyph unicode="&#xae;" horiz-adv-x="545" d="M273 275Q207 275 153 307T66 393T34 513Q34 579 66 633T152 719T273 752Q339 752 393 720T479 633T511 513Q511 447 479 393T393 307T273 275V275ZM273 316Q330 316 374 340T443 408T468 513Q468 573 443 617T374
686T273 711Q215 711 171 687T102 618T77 513Q77 453 102 409T171 340T273 316V316ZM359 399Q360 397 359 395T355 393H325Q322 393 320 397L281 501Q280 503 280 504T274 505H224Q220 505 220 501V398Q220 393 215 393H188Q184 393 184 397V626Q184 630 186 630H288Q325
630 345 615T366 571Q366 542 351 528T318 509Q315 509 317 506L359 399V399ZM281 536Q300 536 314 542T328 567Q328 580 318 589T279 599H224Q222 599 221 599T220 595V539Q220 536 223 536H281V536Z" />
<glyph unicode="&#xaf;" horiz-adv-x="298" d="M288 684Q288 673 275 673H20Q14 673 12 676T10 684V716Q10 725 17 725H281Q288 725 288 717V684Z" />
<glyph unicode="&#xb0;" horiz-adv-x="464" d="M387 703Q387 657 367 622T312 567T232 547Q188 547 153 567T97 622T77 703Q77 748 97 783T152 838T232 858Q276 858 311 838T367 783T387 703V703ZM333 702Q333 749 305 778T230 807Q184 807 156 778T128 702Q129
654 156 625T231 595Q278 595 305 624T333 702V702Z" />
<glyph unicode="&#xb1;" horiz-adv-x="551" d="M486 84Q486 73 472 73L76 72Q70 72 68 74T65 82V117Q65 127 72 127L477 128Q486 128 486 119V84ZM486 431Q486 420 472 420L76 419Q70 419 68 421T65 429V464Q65 474 72 474L477 475Q486 475 486 466V431ZM260 236Q249
236 249 250L248 646Q248 653 250 655T258 657H293Q302 657 302 650V245Q302 236 294 236H260Z" />
<glyph unicode="&#xb2;" horiz-adv-x="452" d="M203 577Q237 611 258 636T288 684T298 731Q298 760 283 779T246 809T199 819Q171 819 140 805T88 757Q83 750 76 756L56 769Q52 773 52 775T54 781Q81 821 122 839T204 857Q241 857 273 844T325 802T345 728Q345
701 335 676T301 623T240 559L111 433Q108 430 109 428T115 425H342Q350 425 350 418V390Q350 384 343 384H60Q55 384 53 386T51 393V413Q51 421 53 425T65 438L203 577Z" />
<glyph unicode="&#xb3;" horiz-adv-x="467" d="M78 787Q74 791 78 796Q109 827 143 842T219 857Q289 857 330 824T372 740Q372 704 350 677T291 637Q284 634 284 633T291 629Q329 618 357 588T386 511Q386 455 342 417T211 378Q165 378 128 393T59 441Q56 444
56 446T59 451L81 468Q86 473 89 468Q118 439 148 428T215 416Q274 416 306 442T339 509Q339 543 321 564T273 598T212 610H156Q150 610 150 615V641Q150 646 156 647H201Q253 647 289 673T325 738Q325 773 296 796T220 820Q187 820 158 807T105 771Q102 767 100
767T94 770L78 787V787Z" />
<glyph unicode="&#xb4;" horiz-adv-x="280" d="M272 710Q276 699 263 695L35 624Q30 622 27 623T21 630L15 649Q11 659 19 662L249 754Q257 757 259 749L272 710Z" />
<glyph unicode="&#xb5;" horiz-adv-x="576" d="M253 45Q298 45 341 70T427 139V518Q427 530 440 530H482Q493 530 493 518V11Q493 0 483 0H440Q430 0 430 10V72Q430 77 428 78T421 75Q368 31 330 12T250 -8Q217 -9 190 -1T141 27V-150Q141 -159 138 -162T126 -165H89Q75
-165 75 -153V517Q75 530 88 530H130Q141 530 141 518V144Q141 117 156 95T197 59T253 45V45Z" />
<glyph unicode="&#xb6;" horiz-adv-x="550" d="M418 697Q413 697 413 691V-78Q413 -80 412 -82T407 -85H372Q365 -85 365 -78V692Q365 697 358 697H323Q317 697 317 691V-78Q317 -85 311 -85H276Q269 -85 269 -78V301Q269 305 265 305Q197 306 149 335T75 412T50
516Q50 573 76 625T154 709T284 742H468Q474 742 474 737V702Q474 697 468 697H418Z" />
<glyph unicode="&#xb7;" horiz-adv-x="189" d="M144 339Q144 326 128 326H57Q45 326 45 338V410Q45 421 53 421H135Q144 421 144 411V339Z" />
<glyph unicode="&#xb8;" horiz-adv-x="211" d="M201 -130Q201 -156 187 -173T149 -198T96 -207Q72 -207 52 -202T14 -186Q9 -183 10 -178L21 -155Q23 -150 28 -153Q40 -161 53 -166T88 -172Q118 -172 132 -162T146 -131Q146 -108 127 -97T67 -85Q62 -85 61 -84T62
-80L98 5H140L117 -53Q115 -57 120 -57Q152 -60 169 -71T194 -98T201 -130V-130Z" />
<glyph unicode="&#xb9;" horiz-adv-x="367" d="M258 419Q264 419 264 414V386Q264 380 258 380H45Q39 380 39 385V414Q39 419 45 419H128Q132 419 132 422V789Q132 795 128 793L46 762Q39 761 39 768V790Q39 793 39 794T43 797L134 842Q139 845 142 846T150 847H173Q179
847 179 840V423Q179 419 184 419H258V419Z" />
<glyph unicode="&#xba;" horiz-adv-x="414" d="M207 751Q256 751 291 729T345 668T364 577Q364 528 346 490T293 429T207 407Q157 407 122 429T69 489T50 577Q50 629 69 668T124 729T207 751V751ZM207 709Q157 709 131 674T105 580Q105 519 131 484T207 448Q258
448 283 483T309 580Q309 638 284 673T207 709V709Z" />
<glyph unicode="&#xbb;" horiz-adv-x="435" d="M155 250Q160 257 155 264L50 439Q48 443 50 445T56 448H80Q83 448 85 448T89 443L221 265Q227 257 220 248L90 80Q87 75 81 75H59Q48 75 50 81L155 250V250ZM329 250Q334 257 329 264L224 439Q222 443 224 445T230
448H254Q257 448 258 448T263 443L395 265Q402 257 394 248L263 80Q261 75 254 75H232Q221 75 224 81L329 250V250Z" />
<glyph unicode="&#xbc;" horiz-adv-x="878" d="M262 315Q268 315 268 310V282Q268 276 262 276H49Q43 276 43 281V310Q43 315 49 315H132Q136 315 136 318V685Q136 691 132 689L50 658Q43 657 43 664V686Q43 689 43 690T47 693L138 738Q143 741 146 742T154 743H177Q183
743 183 736V319Q183 315 188 315H262V315ZM233 5Q227 -4 215 -4H194Q185 -4 184 1T187 13L673 744Q676 749 679 749T687 750H715Q720 750 722 748T720 740L233 5ZM705 462Q707 464 710 465T717 467H751Q757 467 757 460V172Q757 167 762 167H824Q831 167 831 161V137Q831
129 823 129H762Q757 129 757 123V8Q757 0 749 0H716Q709 0 709 8V125Q709 129 704 129H497Q489 129 489 137V163Q489 167 490 171T496 181L705 462V462ZM702 167Q708 167 708 171V395Q708 402 706 402T699 397L535 175Q529 167 539 167H702Z" />
<glyph unicode="&#xbd;" horiz-adv-x="939" d="M256 315Q262 315 262 310V282Q262 276 256 276H43Q37 276 37 281V310Q37 315 43 315H126Q130 315 130 318V685Q130 691 126 689L44 658Q37 657 37 664V686Q37 689 37 690T41 693L132 738Q137 741 140 742T148 743H171Q177
743 177 736V319Q177 315 182 315H256V315ZM222 5Q216 -4 204 -4H183Q174 -4 173 1T176 13L662 744Q665 749 668 749T676 750H704Q709 750 711 748T709 740L222 5ZM725 193Q759 227 780 252T810 300T820 347Q820 376 805 395T768 425T721 435Q693 435 662 421T610
373Q605 366 598 372L578 385Q574 389 574 391T576 397Q603 437 644 455T726 473Q763 473 795 460T847 418T867 344Q867 317 857 292T823 239T762 175L633 49Q630 46 631 44T637 41H864Q872 41 872 34V6Q872 0 865 0H582Q577 0 575 2T573 9V29Q573 37 575 41T587
54L725 193Z" />
<glyph unicode="&#xbe;" horiz-adv-x="911" d="M64 682Q60 686 64 691Q95 722 129 737T205 752Q275 752 316 719T358 635Q358 599 336 572T277 532Q270 529 270 528T277 524Q315 513 343 483T372 406Q372 350 328 312T197 273Q151 273 114 288T45 336Q42 339 42
341T45 346L67 363Q72 368 75 363Q104 334 134 323T201 311Q260 311 292 337T325 404Q325 438 307 459T259 493T198 505H142Q136 505 136 510V536Q136 541 142 542H187Q239 542 275 568T311 633Q311 668 282 691T206 715Q173 715 144 702T91 666Q88 662 86 662T80
665L64 682V682ZM292 5Q286 -4 274 -4H253Q244 -4 243 1T246 13L732 744Q735 749 738 749T746 750H774Q779 750 781 748T779 740L292 5ZM752 462Q754 464 757 465T764 467H798Q804 467 804 460V172Q804 167 809 167H871Q878 167 878 161V137Q878 129 870 129H809Q804
129 804 123V8Q804 0 796 0H763Q756 0 756 8V125Q756 129 751 129H544Q536 129 536 137V163Q536 167 537 171T543 181L752 462V462ZM749 167Q755 167 755 171V395Q755 402 753 402T746 397L582 175Q576 167 586 167H749Z" />
<glyph unicode="&#xbf;" horiz-adv-x="512" d="M224 516Q224 530 240 530H297Q304 530 307 527T310 518V443Q310 432 301 432H233Q224 432 224 442V516ZM474 -34Q478 -35 479 -38T478 -45Q447 -105 385 -140T247 -175Q180 -175 131 -153T55 -89T29 5Q29 47 43
76T82 128T132 173T183 219T221 275T236 352Q236 356 239 359T246 362H286Q297 362 297 350Q297 302 283 267T246 205T198 158T151 115T114 68T99 7Q99 -50 140 -84T248 -118Q284 -118 318 -105T380 -71T418 -22Q420 -19 421 -18T428 -18L474 -34Z" />
<glyph unicode="&#xc0;" horiz-adv-x="716" d="M57 0Q52 0 50 4T49 14L310 729Q313 736 317 739T328 742H388Q405 742 409 729L667 14Q670 9 667 5T658 0H607Q595 0 592 9L518 215Q517 219 515 221T507 223H203Q195 223 192 215L116 8Q115 4 112 2T103 0H57V0ZM485
284Q496 284 492 295L363 650Q359 659 356 659T348 649L217 294Q213 284 222 284H485ZM247 959Q250 966 258 963L488 871Q495 868 492 859L485 839Q484 834 481 833T471 833L243 904Q231 908 235 919L247 959V959Z" />
<glyph unicode="&#xc1;" horiz-adv-x="716" d="M57 0Q52 0 50 4T49 14L310 729Q313 736 317 739T328 742H388Q405 742 409 729L667 14Q670 9 667 5T658 0H607Q595 0 592 9L518 215Q517 219 515 221T507 223H203Q195 223 192 215L116 8Q115 4 112 2T103 0H57V0ZM485
284Q496 284 492 295L363 650Q359 659 356 659T348 649L217 294Q213 284 222 284H485ZM489 922Q493 911 480 907L252 836Q247 834 244 835T238 842L232 861Q228 871 236 874L466 966Q474 969 476 961L489 922Z" />
<glyph unicode="&#xc2;" horiz-adv-x="716" d="M57 0Q52 0 50 4T49 14L310 729Q313 736 317 739T328 742H388Q405 742 409 729L667 14Q670 9 667 5T658 0H607Q595 0 592 9L518 215Q517 219 515 221T507 223H203Q195 223 192 215L116 8Q115 4 112 2T103 0H57V0ZM485
284Q496 284 492 295L363 650Q359 659 356 659T348 649L217 294Q213 284 222 284H485ZM368 904Q360 911 358 911T346 904L287 855Q281 850 279 849T270 848H223Q217 848 217 851T221 859L322 946Q327 950 331 953T345 956H375Q382 956 386 953T393 947L493 859Q506
848 492 848H441Q436 848 432 849T424 855L368 904Z" />
<glyph unicode="&#xc3;" horiz-adv-x="716" d="M57 0Q52 0 50 4T49 14L310 729Q313 736 317 739T328 742H388Q405 742 409 729L667 14Q670 9 667 5T658 0H607Q595 0 592 9L518 215Q517 219 515 221T507 223H203Q195 223 192 215L116 8Q115 4 112 2T103 0H57V0ZM485
284Q496 284 492 295L363 650Q359 659 356 659T348 649L217 294Q213 284 222 284H485ZM492 895Q481 889 464 882T420 875Q393 875 374 881T337 893T298 900Q276 900 264 893T239 879Q235 876 232 876T226 884L218 906Q217 910 217 912T221 917Q236 929 253 937T294
946Q317 946 338 940T378 926T420 919Q438 919 450 924T475 937Q480 941 483 940T489 933L498 908Q501 902 492 895V895Z" />
<glyph unicode="&#xc4;" horiz-adv-x="716" d="M57 0Q52 0 50 4T49 14L310 729Q313 736 317 739T328 742H388Q405 742 409 729L667 14Q670 9 667 5T658 0H607Q595 0 592 9L518 215Q517 219 515 221T507 223H203Q195 223 192 215L116 8Q115 4 112 2T103 0H57V0ZM485
284Q496 284 492 295L363 650Q359 659 356 659T348 649L217 294Q213 284 222 284H485ZM326 863Q326 855 323 852T311 849H269Q261 849 259 851T256 861V942Q256 954 267 954H316Q326 954 326 943V863ZM458 863Q458 855 455 852T443 849H401Q393 849 391 851T388
861V942Q388 954 398 954H448Q458 954 458 943V863Z" />
<glyph unicode="&#xc5;" horiz-adv-x="716" d="M57 0Q52 0 50 4T49 14L310 729Q313 736 317 739T328 742H388Q405 742 409 729L667 14Q670 9 667 5T658 0H607Q595 0 592 9L518 215Q517 219 515 221T507 223H203Q195 223 192 215L116 8Q115 4 112 2T103 0H57V0ZM485
284Q496 284 492 295L363 650Q359 659 356 659T348 649L217 294Q213 284 222 284H485ZM460 862Q460 818 430 789T357 760Q314 760 284 790T254 864Q254 892 268 914T305 950T357 963Q386 963 409 950T446 914T460 862V862ZM413 861Q413 887 397 902T356 918Q334
918 317 903T299 861Q299 839 316 822T356 804Q380 804 396 821T413 861V861Z" />
<glyph unicode="&#xc6;" horiz-adv-x="990" d="M930 60Q941 60 941 51V9Q941 5 939 3T931 0H509Q497 0 497 12V216Q497 223 491 223H245Q237 223 233 215L115 8Q113 4 110 2T101 0H55Q50 0 48 4T49 14L453 729Q456 736 460 739T473 742H918Q927 742 927 733V692Q927
682 916 682H584Q573 682 573 671V414Q573 404 583 404H838Q847 404 847 395V353Q847 349 845 347T837 345H583Q573 345 573 335V70Q573 60 582 60H930V60ZM487 284Q497 284 497 295V655Q496 667 491 667T478 654L271 294Q264 284 274 284H487V284Z" />
<glyph unicode="&#xc7;" horiz-adv-x="702" d="M377 752Q425 752 470 736T552 692T612 628T641 550Q642 544 641 542T634 539L576 534Q572 533 570 535T567 543Q551 609 501 650T379 692Q268 692 209 611T149 369Q149 214 208 133T386 52Q459 52 508 87T587 200Q589
204 596 203L645 190Q647 189 648 187T649 179Q640 149 623 121T582 69T527 27T460 0T381 -10Q284 -10 214 35T107 166T70 370Q70 490 107 575T212 706T377 752V752ZM465 -130Q465 -156 451 -173T413 -198T360 -207Q336 -207 316 -202T278 -186Q273 -183 274 -178L285
-155Q287 -150 292 -153Q304 -161 317 -166T352 -172Q382 -172 396 -162T410 -131Q410 -108 391 -97T331 -85Q326 -85 325 -84T326 -80L362 5H404L381 -53Q379 -57 384 -57Q416 -60 433 -71T458 -98T465 -130V-130Z" />
<glyph unicode="&#xc8;" horiz-adv-x="622" d="M104 730Q104 742 115 742H550Q559 742 559 733L558 692Q558 682 548 682H191Q179 682 179 671V414Q179 404 190 404H461Q470 404 470 395V353Q470 349 469 347T461 345H189Q179 345 179 335V70Q179 60 189 60H562Q573
60 573 51V9Q573 5 571 3T563 0H116Q104 0 104 12V730V730ZM233 959Q236 966 244 963L474 871Q481 868 478 859L471 839Q470 834 467 833T457 833L229 904Q217 908 221 919L233 959V959Z" />
<glyph unicode="&#xc9;" horiz-adv-x="622" d="M104 730Q104 742 115 742H550Q559 742 559 733L558 692Q558 682 548 682H191Q179 682 179 671V414Q179 404 190 404H461Q470 404 470 395V353Q470 349 469 347T461 345H189Q179 345 179 335V70Q179 60 189 60H562Q573
60 573 51V9Q573 5 571 3T563 0H116Q104 0 104 12V730V730ZM475 922Q479 911 466 907L238 836Q233 834 230 835T224 842L218 861Q214 871 222 874L452 966Q460 969 462 961L475 922Z" />
<glyph unicode="&#xca;" horiz-adv-x="622" d="M104 730Q104 742 115 742H550Q559 742 559 733L558 692Q558 682 548 682H191Q179 682 179 671V414Q179 404 190 404H461Q470 404 470 395V353Q470 349 469 347T461 345H189Q179 345 179 335V70Q179 60 189 60H562Q573
60 573 51V9Q573 5 571 3T563 0H116Q104 0 104 12V730V730ZM354 904Q346 911 344 911T332 904L273 855Q267 850 265 849T256 848H209Q203 848 203 851T207 859L308 946Q313 950 317 953T331 956H361Q368 956 372 953T379 947L479 859Q492 848 478 848H427Q422 848
418 849T410 855L354 904Z" />
<glyph unicode="&#xcb;" horiz-adv-x="622" d="M104 730Q104 742 115 742H550Q559 742 559 733L558 692Q558 682 548 682H191Q179 682 179 671V414Q179 404 190 404H461Q470 404 470 395V353Q470 349 469 347T461 345H189Q179 345 179 335V70Q179 60 189 60H562Q573
60 573 51V9Q573 5 571 3T563 0H116Q104 0 104 12V730V730ZM312 863Q312 855 309 852T297 849H255Q247 849 245 851T242 861V942Q242 954 253 954H302Q312 954 312 943V863ZM444 863Q444 855 441 852T429 849H387Q379 849 377 851T374 861V942Q374 954 384 954H434Q444
954 444 943V863Z" />
<glyph unicode="&#xcc;" horiz-adv-x="283" d="M169 742Q179 742 179 730V15Q179 6 176 3T164 0H118Q109 0 107 2T104 12V730Q104 742 115 742H169ZM34 959Q37 966 45 963L275 871Q282 868 279 859L272 839Q271 834 268 833T258 833L30 904Q18 908 22 919L34 959V959Z" />
<glyph unicode="&#xcd;" horiz-adv-x="283" d="M169 742Q179 742 179 730V15Q179 6 176 3T164 0H118Q109 0 107 2T104 12V730Q104 742 115 742H169ZM276 922Q280 911 267 907L39 836Q34 834 31 835T25 842L19 861Q15 871 23 874L253 966Q261 969 263 961L276 922Z" />
<glyph unicode="&#xce;" horiz-adv-x="283" d="M169 742Q179 742 179 730V15Q179 6 176 3T164 0H118Q109 0 107 2T104 12V730Q104 742 115 742H169ZM155 904Q147 911 145 911T133 904L74 855Q68 850 66 849T57 848H10Q4 848 4 851T8 859L109 946Q114 950 118 953T132
956H162Q169 956 173 953T180 947L280 859Q293 848 279 848H228Q223 848 219 849T211 855L155 904Z" />
<glyph unicode="&#xcf;" horiz-adv-x="283" d="M169 742Q179 742 179 730V15Q179 6 176 3T164 0H118Q109 0 107 2T104 12V730Q104 742 115 742H169ZM113 863Q113 855 110 852T98 849H56Q48 849 46 851T43 861V942Q43 954 54 954H103Q113 954 113 943V863ZM245
863Q245 855 242 852T230 849H188Q180 849 178 851T175 861V942Q175 954 185 954H235Q245 954 245 943V863Z" />
<glyph unicode="&#xd0;" horiz-adv-x="717" d="M357 357Q357 343 340 343H46Q38 343 36 346T33 356V390Q33 401 42 401H348Q357 401 357 391V357ZM120 742Q125 742 144 742T188 742T232 741T259 741Q398 740 483 699T608 577T648 378Q648 250 605 166T473 41T248
0H119Q107 0 107 13V730Q107 736 110 739T120 742V742ZM193 682Q183 682 183 668V69Q183 59 194 59H237Q355 59 428 89T535 189T569 371Q569 493 534 560T426 654T241 682H193V682Z" />
<glyph unicode="&#xd1;" horiz-adv-x="756" d="M642 742Q652 742 652 731V11Q652 6 650 3T641 0H606Q600 0 595 1T586 7L183 597Q178 604 175 603T171 596V11Q171 0 159 0H116Q104 0 104 12V730Q104 742 115 742H157Q164 742 167 741T175 733L571 151Q577 144
581 146T586 154V731Q586 742 596 742H642ZM527 895Q516 889 499 882T455 875Q428 875 409 881T372 893T333 900Q311 900 299 893T274 879Q270 876 267 876T261 884L253 906Q252 910 252 912T256 917Q271 929 288 937T329 946Q352 946 373 940T413 926T455 919Q473
919 485 924T510 937Q515 941 518 940T524 933L533 908Q536 902 527 895V895Z" />
<glyph unicode="&#xd2;" horiz-adv-x="762" d="M381 -10Q284 -10 215 33T108 161T70 367Q70 491 108 577T216 707T382 752Q478 752 547 708T653 578T691 369Q691 247 654 163T547 34T381 -10V-10ZM383 51Q497 51 554 129T612 369Q612 533 554 612T382 692Q267
692 208 612T149 369Q149 207 208 129T383 51V51ZM272 959Q275 966 283 963L513 871Q520 868 517 859L510 839Q509 834 506 833T496 833L268 904Q256 908 260 919L272 959V959Z" />
<glyph unicode="&#xd3;" horiz-adv-x="762" d="M381 -10Q284 -10 215 33T108 161T70 367Q70 491 108 577T216 707T382 752Q478 752 547 708T653 578T691 369Q691 247 654 163T547 34T381 -10V-10ZM383 51Q497 51 554 129T612 369Q612 533 554 612T382 692Q267
692 208 612T149 369Q149 207 208 129T383 51V51ZM514 922Q518 911 505 907L277 836Q272 834 269 835T263 842L257 861Q253 871 261 874L491 966Q499 969 501 961L514 922Z" />
<glyph unicode="&#xd4;" horiz-adv-x="762" d="M381 -10Q284 -10 215 33T108 161T70 367Q70 491 108 577T216 707T382 752Q478 752 547 708T653 578T691 369Q691 247 654 163T547 34T381 -10V-10ZM383 51Q497 51 554 129T612 369Q612 533 554 612T382 692Q267
692 208 612T149 369Q149 207 208 129T383 51V51ZM393 904Q385 911 383 911T371 904L312 855Q306 850 304 849T295 848H248Q242 848 242 851T246 859L347 946Q352 950 356 953T370 956H400Q407 956 411 953T418 947L518 859Q531 848 517 848H466Q461 848 457 849T449
855L393 904Z" />
<glyph unicode="&#xd5;" horiz-adv-x="762" d="M381 -10Q284 -10 215 33T108 161T70 367Q70 491 108 577T216 707T382 752Q478 752 547 708T653 578T691 369Q691 247 654 163T547 34T381 -10V-10ZM383 51Q497 51 554 129T612 369Q612 533 554 612T382 692Q267
692 208 612T149 369Q149 207 208 129T383 51V51ZM517 895Q506 889 489 882T445 875Q418 875 399 881T362 893T323 900Q301 900 289 893T264 879Q260 876 257 876T251 884L243 906Q242 910 242 912T246 917Q261 929 278 937T319 946Q342 946 363 940T403 926T445
919Q463 919 475 924T500 937Q505 941 508 940T514 933L523 908Q526 902 517 895V895Z" />
<glyph unicode="&#xd6;" horiz-adv-x="762" d="M381 -10Q284 -10 215 33T108 161T70 367Q70 491 108 577T216 707T382 752Q478 752 547 708T653 578T691 369Q691 247 654 163T547 34T381 -10V-10ZM383 51Q497 51 554 129T612 369Q612 533 554 612T382 692Q267
692 208 612T149 369Q149 207 208 129T383 51V51ZM351 863Q351 855 348 852T336 849H294Q286 849 284 851T281 861V942Q281 954 292 954H341Q351 954 351 943V863ZM483 863Q483 855 480 852T468 849H426Q418 849 416 851T413 861V942Q413 954 423 954H473Q483 954
483 943V863Z" />
<glyph unicode="&#xd7;" horiz-adv-x="530" d="M436 180Q428 172 418 181L71 527Q67 531 67 534T71 542L96 567Q103 574 108 568L460 217Q463 214 463 211T461 205L436 180ZM73 202Q64 210 74 220L420 567Q424 571 427 571T435 567L460 542Q466 536 461 530L109
178Q103 172 97 177L73 202Z" />
<glyph unicode="&#xd8;" horiz-adv-x="721" d="M699 720Q705 714 700 707L616 612Q643 566 657 505T671 369Q671 247 634 163T527 34T360 -10Q291 -10 236 12T141 78L71 -1Q66 -8 61 -8T48 -3L28 17Q17 28 24 35L105 127Q78 173 64 233T50 367Q50 491 88 577T195
707T361 752Q430 752 485 729T580 661L653 745Q662 754 669 748L699 720V720ZM131 369Q131 313 138 268T162 188L532 611Q475 691 361 691Q247 691 189 612T131 369V369ZM589 369Q589 425 582 470T558 551L189 130Q247 51 362 51Q477 51 533 129T589 369V369Z"
/>
<glyph unicode="&#xd9;" horiz-adv-x="706" d="M612 240Q612 155 583 99T496 17T353 -10Q263 -10 206 19T122 107T94 256V729Q94 742 104 742H158Q170 742 170 730V236Q170 143 217 97T358 51Q420 51 462 71T526 133T548 239V731Q548 742 558 742H602Q612 742
612 731V240V240ZM249 959Q252 966 260 963L490 871Q497 868 494 859L487 839Q486 834 483 833T473 833L245 904Q233 908 237 919L249 959V959Z" />
<glyph unicode="&#xda;" horiz-adv-x="706" d="M612 240Q612 155 583 99T496 17T353 -10Q263 -10 206 19T122 107T94 256V729Q94 742 104 742H158Q170 742 170 730V236Q170 143 217 97T358 51Q420 51 462 71T526 133T548 239V731Q548 742 558 742H602Q612 742
612 731V240V240ZM491 922Q495 911 482 907L254 836Q249 834 246 835T240 842L234 861Q230 871 238 874L468 966Q476 969 478 961L491 922Z" />
<glyph unicode="&#xdb;" horiz-adv-x="706" d="M612 240Q612 155 583 99T496 17T353 -10Q263 -10 206 19T122 107T94 256V729Q94 742 104 742H158Q170 742 170 730V236Q170 143 217 97T358 51Q420 51 462 71T526 133T548 239V731Q548 742 558 742H602Q612 742
612 731V240V240ZM370 904Q362 911 360 911T348 904L289 855Q283 850 281 849T272 848H225Q219 848 219 851T223 859L324 946Q329 950 333 953T347 956H377Q384 956 388 953T395 947L495 859Q508 848 494 848H443Q438 848 434 849T426 855L370 904Z" />
<glyph unicode="&#xdc;" horiz-adv-x="706" d="M612 240Q612 155 583 99T496 17T353 -10Q263 -10 206 19T122 107T94 256V729Q94 742 104 742H158Q170 742 170 730V236Q170 143 217 97T358 51Q420 51 462 71T526 133T548 239V731Q548 742 558 742H602Q612 742
612 731V240V240ZM328 863Q328 855 325 852T313 849H271Q263 849 261 851T258 861V942Q258 954 269 954H318Q328 954 328 943V863ZM460 863Q460 855 457 852T445 849H403Q395 849 393 851T390 861V942Q390 954 400 954H450Q460 954 460 943V863Z" />
<glyph unicode="&#xdd;" horiz-adv-x="660" d="M607 742Q613 742 615 739T614 729L376 328Q372 323 372 318T371 301V16Q371 0 353 0H310Q301 0 298 3T295 13V294Q295 303 294 307T289 318L46 727Q43 734 45 738T56 742H108Q116 742 119 740T127 731L323 396Q329
384 334 384T346 394L540 731Q545 738 548 740T559 742H607V742ZM460 922Q464 911 451 907L223 836Q218 834 215 835T209 842L203 861Q199 871 207 874L437 966Q445 969 447 961L460 922Z" />
<glyph unicode="&#xde;" horiz-adv-x="685" d="M628 387Q628 313 594 266T501 198T366 176H188Q179 176 179 166V12Q179 0 167 0H115Q109 0 107 2T104 11V730Q104 742 115 742H169Q179 742 179 730V590Q179 584 186 584H356Q435 584 496 564T593 499T628 387V387ZM550
388Q550 463 497 493T353 524H191Q179 524 179 514V247Q179 235 188 235H360Q446 235 498 270T550 388V388Z" />
<glyph unicode="&#xdf;" horiz-adv-x="597" d="M316 742Q377 742 413 722T465 671T481 604Q481 565 465 541T422 501T364 469Q325 447 310 435T294 401Q294 380 308 371T361 349Q388 340 420 327T481 294T528 242T547 161Q547 105 521 67T451 10T353 -10Q319 -10
283 -2T221 21Q212 26 216 33L236 68Q240 73 248 69Q269 57 291 50T346 42Q409 42 446 71T484 155Q484 196 464 220T413 259T345 285Q319 294 294 305T253 336T236 392Q236 431 259 455T330 505Q351 517 370 529T403 559T417 605Q417 644 389 667T308 690Q245 690
205 652T165 535V12Q166 0 156 0H109Q99 0 99 10V463Q99 473 91 473H35Q27 473 27 481V516Q27 519 29 521T36 524H91Q97 524 98 527T99 534Q99 581 114 619T156 685T224 727T316 742V742Z" />
<glyph unicode="&#xe0;" horiz-adv-x="544" d="M393 67Q354 29 309 10T210 -10Q132 -10 87 29T42 135Q42 187 71 224T157 284T298 312L387 319Q395 320 399 323T404 334V363Q404 421 368 455T270 489Q223 489 185 468T116 404Q113 400 111 399T103 399L62 416Q59
418 58 420T61 429Q92 479 144 509T273 540Q336 540 379 520T445 460T468 368V13Q468 5 466 3T456 0H419Q413 0 410 3T407 13L405 65Q403 79 393 67V67ZM404 259Q404 276 390 274L315 268Q263 265 225 255T160 229T121 192T108 142Q108 95 141 69T230 42Q264 42
296 54T353 86Q377 107 390 129T404 171V259V259ZM159 747Q162 754 170 751L400 659Q407 656 404 647L397 627Q396 622 393 621T383 621L155 692Q143 696 147 707L159 747V747Z" />
<glyph unicode="&#xe1;" horiz-adv-x="544" d="M393 67Q354 29 309 10T210 -10Q132 -10 87 29T42 135Q42 187 71 224T157 284T298 312L387 319Q395 320 399 323T404 334V363Q404 421 368 455T270 489Q223 489 185 468T116 404Q113 400 111 399T103 399L62 416Q59
418 58 420T61 429Q92 479 144 509T273 540Q336 540 379 520T445 460T468 368V13Q468 5 466 3T456 0H419Q413 0 410 3T407 13L405 65Q403 79 393 67V67ZM404 259Q404 276 390 274L315 268Q263 265 225 255T160 229T121 192T108 142Q108 95 141 69T230 42Q264 42
296 54T353 86Q377 107 390 129T404 171V259V259ZM401 710Q405 699 392 695L164 624Q159 622 156 623T150 630L144 649Q140 659 148 662L378 754Q386 757 388 749L401 710Z" />
<glyph unicode="&#xe2;" horiz-adv-x="544" d="M393 67Q354 29 309 10T210 -10Q132 -10 87 29T42 135Q42 187 71 224T157 284T298 312L387 319Q395 320 399 323T404 334V363Q404 421 368 455T270 489Q223 489 185 468T116 404Q113 400 111 399T103 399L62 416Q59
418 58 420T61 429Q92 479 144 509T273 540Q336 540 379 520T445 460T468 368V13Q468 5 466 3T456 0H419Q413 0 410 3T407 13L405 65Q403 79 393 67V67ZM404 259Q404 276 390 274L315 268Q263 265 225 255T160 229T121 192T108 142Q108 95 141 69T230 42Q264 42
296 54T353 86Q377 107 390 129T404 171V259V259ZM280 692Q272 699 270 699T258 692L199 643Q193 638 191 637T182 636H135Q129 636 129 639T133 647L234 734Q239 738 243 741T257 744H287Q294 744 298 741T305 735L405 647Q418 636 404 636H353Q348 636 344 637T336
643L280 692Z" />
<glyph unicode="&#xe3;" horiz-adv-x="544" d="M393 67Q354 29 309 10T210 -10Q132 -10 87 29T42 135Q42 187 71 224T157 284T298 312L387 319Q395 320 399 323T404 334V363Q404 421 368 455T270 489Q223 489 185 468T116 404Q113 400 111 399T103 399L62 416Q59
418 58 420T61 429Q92 479 144 509T273 540Q336 540 379 520T445 460T468 368V13Q468 5 466 3T456 0H419Q413 0 410 3T407 13L405 65Q403 79 393 67V67ZM404 259Q404 276 390 274L315 268Q263 265 225 255T160 229T121 192T108 142Q108 95 141 69T230 42Q264 42
296 54T353 86Q377 107 390 129T404 171V259V259ZM404 683Q393 677 376 670T332 663Q305 663 286 669T249 681T210 688Q188 688 176 681T151 667Q147 664 144 664T138 672L130 694Q129 698 129 700T133 705Q148 717 165 725T206 734Q229 734 250 728T290 714T332
707Q350 707 362 712T387 725Q392 729 395 728T401 721L410 696Q413 690 404 683V683Z" />
<glyph unicode="&#xe4;" horiz-adv-x="544" d="M393 67Q354 29 309 10T210 -10Q132 -10 87 29T42 135Q42 187 71 224T157 284T298 312L387 319Q395 320 399 323T404 334V363Q404 421 368 455T270 489Q223 489 185 468T116 404Q113 400 111 399T103 399L62 416Q59
418 58 420T61 429Q92 479 144 509T273 540Q336 540 379 520T445 460T468 368V13Q468 5 466 3T456 0H419Q413 0 410 3T407 13L405 65Q403 79 393 67V67ZM404 259Q404 276 390 274L315 268Q263 265 225 255T160 229T121 192T108 142Q108 95 141 69T230 42Q264 42
296 54T353 86Q377 107 390 129T404 171V259V259ZM238 651Q238 643 235 640T223 637H181Q173 637 171 639T168 649V730Q168 742 179 742H228Q238 742 238 731V651ZM370 651Q370 643 367 640T355 637H313Q305 637 303 639T300 649V730Q300 742 310 742H360Q370 742
370 731V651Z" />
<glyph unicode="&#xe5;" horiz-adv-x="544" d="M393 67Q354 29 309 10T210 -10Q132 -10 87 29T42 135Q42 187 71 224T157 284T298 312L387 319Q395 320 399 323T404 334V363Q404 421 368 455T270 489Q223 489 185 468T116 404Q113 400 111 399T103 399L62 416Q59
418 58 420T61 429Q92 479 144 509T273 540Q336 540 379 520T445 460T468 368V13Q468 5 466 3T456 0H419Q413 0 410 3T407 13L405 65Q403 79 393 67V67ZM404 259Q404 276 390 274L315 268Q263 265 225 255T160 229T121 192T108 142Q108 95 141 69T230 42Q264 42
296 54T353 86Q377 107 390 129T404 171V259V259ZM372 699Q372 655 342 626T269 597Q226 597 196 627T166 701Q166 729 180 751T217 787T269 800Q298 800 321 787T358 751T372 699V699ZM325 698Q325 724 309 739T268 755Q246 755 229 740T211 698Q211 676 228 659T268
641Q292 641 308 658T325 698V698Z" />
<glyph unicode="&#xe6;" horiz-adv-x="926" d="M485 249Q473 249 470 245T466 225Q466 192 480 160T519 101T577 59T650 43Q696 43 727 56T779 90T815 130Q819 135 821 135T828 134L861 115Q868 112 862 103Q842 69 810 44T736 4T644 -10Q586 -10 547 8T481 53T438
102Q436 106 433 102Q413 78 385 52T314 8T209 -10Q130 -10 86 29T42 137Q42 212 102 257T288 312L386 319Q395 320 399 323T404 334V363Q404 421 369 455T265 489Q222 489 185 468T115 404Q111 399 109 398T102 399L62 416Q59 418 59 421T61 429Q82 465 113 489T185
527T273 540Q346 540 389 514T450 434Q480 486 530 513T646 540Q716 540 769 509T852 417T882 271Q882 260 879 255T864 250L485 249V249ZM645 489Q595 489 556 466T493 399T468 298L797 297Q809 297 811 300T814 312Q814 360 793 400T733 464T645 489V489ZM404
257Q404 265 401 269T389 272L307 266Q241 260 197 245T131 204T109 141Q109 95 141 67T230 42Q278 44 317 62T380 110T404 174V257V257Z" />
<glyph unicode="&#xe7;" horiz-adv-x="540" d="M296 540Q346 540 383 525T450 484T499 423Q504 413 496 410L454 396Q447 393 442 401Q419 432 397 450T352 478T301 488Q246 488 205 461T141 383T118 265Q118 197 141 147T205 69T302 42Q352 42 389 66T457 139Q460
143 462 144T469 143L504 127Q510 124 507 115Q491 88 470 65T422 26T365 0T296 -10Q224 -10 168 24T81 120T50 263Q50 344 81 406T169 504T296 540V540ZM381 -130Q381 -156 367 -173T329 -198T276 -207Q252 -207 232 -202T194 -186Q189 -183 190 -178L201 -155Q203
-150 208 -153Q220 -161 233 -166T268 -172Q298 -172 312 -162T326 -131Q326 -108 307 -97T247 -85Q242 -85 241 -84T242 -80L278 5H320L297 -53Q295 -57 300 -57Q332 -60 349 -71T374 -98T381 -130V-130Z" />
<glyph unicode="&#xe8;" horiz-adv-x="579" d="M119 235Q119 184 144 140T210 70T304 43Q359 43 399 65T468 130Q471 135 474 135T481 134L515 115Q523 111 516 103Q491 65 460 40T388 3T300 -10Q226 -10 170 24T82 119T50 260Q50 348 83 410T172 506T299 540Q371
540 424 508T506 416T535 271Q535 264 534 257T521 250H126Q123 250 121 246T119 235V235ZM451 297Q462 297 465 300T468 311Q468 359 448 399T390 464T300 489Q241 489 201 461T141 388T120 297H451ZM187 747Q190 754 198 751L428 659Q435 656 432 647L425 627Q424
622 421 621T411 621L183 692Q171 696 175 707L187 747V747Z" />
<glyph unicode="&#xe9;" horiz-adv-x="579" d="M119 235Q119 184 144 140T210 70T304 43Q359 43 399 65T468 130Q471 135 474 135T481 134L515 115Q523 111 516 103Q491 65 460 40T388 3T300 -10Q226 -10 170 24T82 119T50 260Q50 348 83 410T172 506T299 540Q371
540 424 508T506 416T535 271Q535 264 534 257T521 250H126Q123 250 121 246T119 235V235ZM451 297Q462 297 465 300T468 311Q468 359 448 399T390 464T300 489Q241 489 201 461T141 388T120 297H451ZM430 710Q434 699 421 695L193 624Q188 622 185 623T179 630L173
649Q169 659 177 662L407 754Q415 757 417 749L430 710Z" />
<glyph unicode="&#xea;" horiz-adv-x="579" d="M119 235Q119 184 144 140T210 70T304 43Q359 43 399 65T468 130Q471 135 474 135T481 134L515 115Q523 111 516 103Q491 65 460 40T388 3T300 -10Q226 -10 170 24T82 119T50 260Q50 348 83 410T172 506T299 540Q371
540 424 508T506 416T535 271Q535 264 534 257T521 250H126Q123 250 121 246T119 235V235ZM451 297Q462 297 465 300T468 311Q468 359 448 399T390 464T300 489Q241 489 201 461T141 388T120 297H451ZM308 692Q300 699 298 699T286 692L227 643Q221 638 219 637T210
636H163Q157 636 157 639T161 647L262 734Q267 738 271 741T285 744H315Q322 744 326 741T333 735L433 647Q446 636 432 636H381Q376 636 372 637T364 643L308 692Z" />
<glyph unicode="&#xeb;" horiz-adv-x="579" d="M119 235Q119 184 144 140T210 70T304 43Q359 43 399 65T468 130Q471 135 474 135T481 134L515 115Q523 111 516 103Q491 65 460 40T388 3T300 -10Q226 -10 170 24T82 119T50 260Q50 348 83 410T172 506T299 540Q371
540 424 508T506 416T535 271Q535 264 534 257T521 250H126Q123 250 121 246T119 235V235ZM451 297Q462 297 465 300T468 311Q468 359 448 399T390 464T300 489Q241 489 201 461T141 388T120 297H451ZM266 651Q266 643 263 640T251 637H209Q201 637 199 639T196
649V730Q196 742 207 742H256Q266 742 266 731V651ZM398 651Q398 643 395 640T383 637H341Q333 637 331 639T328 649V730Q328 742 338 742H388Q398 742 398 731V651Z" />
<glyph unicode="&#xec;" horiz-adv-x="232" d="M149 15Q149 6 146 3T133 0H96Q88 0 86 2T83 12V518Q83 530 94 530H138Q149 530 149 518V15ZM6 747Q9 754 17 751L247 659Q254 656 251 647L244 627Q243 622 240 621T230 621L2 692Q-10 696 -6 707L6 747V747Z" />
<glyph unicode="&#xed;" horiz-adv-x="232" d="M149 15Q149 6 146 3T133 0H96Q88 0 86 2T83 12V518Q83 530 94 530H138Q149 530 149 518V15ZM248 710Q252 699 239 695L11 624Q6 622 3 623T-3 630L-9 649Q-13 659 -5 662L225 754Q233 757 235 749L248 710Z" />
<glyph unicode="&#xee;" horiz-adv-x="232" d="M149 15Q149 6 146 3T133 0H96Q88 0 86 2T83 12V518Q83 530 94 530H138Q149 530 149 518V15ZM127 692Q119 699 117 699T105 692L46 643Q40 638 38 637T29 636H-18Q-24 636 -24 639T-20 647L81 734Q86 738 90 741T104
744H134Q141 744 145 741T152 735L252 647Q265 636 251 636H200Q195 636 191 637T183 643L127 692Z" />
<glyph unicode="&#xef;" horiz-adv-x="232" d="M149 15Q149 6 146 3T133 0H96Q88 0 86 2T83 12V518Q83 530 94 530H138Q149 530 149 518V15ZM85 651Q85 643 82 640T70 637H28Q20 637 18 639T15 649V730Q15 742 26 742H75Q85 742 85 731V651ZM217 651Q217 643 214
640T202 637H160Q152 637 150 639T147 649V730Q147 742 157 742H207Q217 742 217 731V651Z" />
<glyph unicode="&#xf0;" horiz-adv-x="598" d="M548 259Q548 180 518 119T432 24T297 -10Q224 -10 169 23T82 116T50 252Q50 330 81 390T167 485T292 520Q337 520 373 505T437 463Q415 511 379 555T284 639L127 550Q119 546 113 556L103 571Q99 577 100 580T104
584L245 663Q221 677 195 689T137 714Q133 716 133 719T136 726L165 747Q170 750 173 751T183 749Q216 737 245 724T300 694L399 750Q406 754 410 749L423 724Q427 719 422 715L339 669Q452 592 500 488T548 259V259ZM301 43Q354 43 394 70T457 146T480 254Q480
316 457 364T393 440T300 468Q248 468 207 440T142 363T118 254Q118 194 141 147T206 71T301 43V43Z" />
<glyph unicode="&#xf1;" horiz-adv-x="581" d="M95 0Q83 0 83 12V519Q83 530 93 530H136Q146 530 146 520V461Q146 456 148 455T155 458Q190 484 219 502T278 530T343 540Q422 540 463 499T504 391V13Q504 0 492 0H450Q444 0 441 3T438 12V373Q438 426 412 455T327
485Q295 485 268 476T212 448T149 400V12Q149 0 136 0H95V0ZM438 683Q427 677 410 670T366 663Q339 663 320 669T283 681T244 688Q222 688 210 681T185 667Q181 664 178 664T172 672L164 694Q163 698 163 700T167 705Q182 717 199 725T240 734Q263 734 284 728T324
714T366 707Q384 707 396 712T421 725Q426 729 429 728T435 721L444 696Q447 690 438 683V683Z" />
<glyph unicode="&#xf2;" horiz-adv-x="598" d="M299 -10Q225 -10 169 24T81 120T50 262Q50 344 81 406T169 504T300 540Q375 540 430 505T517 408T548 264Q548 183 517 122T430 25T299 -10V-10ZM301 43Q357 43 397 70T458 147T480 264Q480 332 458 382T396 460T300
488Q245 488 204 461T141 383T118 264Q118 197 140 147T204 70T301 43V43ZM191 747Q194 754 202 751L432 659Q439 656 436 647L429 627Q428 622 425 621T415 621L187 692Q175 696 179 707L191 747V747Z" />
<glyph unicode="&#xf3;" horiz-adv-x="598" d="M299 -10Q225 -10 169 24T81 120T50 262Q50 344 81 406T169 504T300 540Q375 540 430 505T517 408T548 264Q548 183 517 122T430 25T299 -10V-10ZM301 43Q357 43 397 70T458 147T480 264Q480 332 458 382T396 460T300
488Q245 488 204 461T141 383T118 264Q118 197 140 147T204 70T301 43V43ZM433 710Q437 699 424 695L196 624Q191 622 188 623T182 630L176 649Q172 659 180 662L410 754Q418 757 420 749L433 710Z" />
<glyph unicode="&#xf4;" horiz-adv-x="598" d="M299 -10Q225 -10 169 24T81 120T50 262Q50 344 81 406T169 504T300 540Q375 540 430 505T517 408T548 264Q548 183 517 122T430 25T299 -10V-10ZM301 43Q357 43 397 70T458 147T480 264Q480 332 458 382T396 460T300
488Q245 488 204 461T141 383T118 264Q118 197 140 147T204 70T301 43V43ZM311 692Q303 699 301 699T289 692L230 643Q224 638 222 637T213 636H166Q160 636 160 639T164 647L265 734Q270 738 274 741T288 744H318Q325 744 329 741T336 735L436 647Q449 636 435
636H384Q379 636 375 637T367 643L311 692Z" />
<glyph unicode="&#xf5;" horiz-adv-x="598" d="M299 -10Q225 -10 169 24T81 120T50 262Q50 344 81 406T169 504T300 540Q375 540 430 505T517 408T548 264Q548 183 517 122T430 25T299 -10V-10ZM301 43Q357 43 397 70T458 147T480 264Q480 332 458 382T396 460T300
488Q245 488 204 461T141 383T118 264Q118 197 140 147T204 70T301 43V43ZM435 683Q424 677 407 670T363 663Q336 663 317 669T280 681T241 688Q219 688 207 681T182 667Q178 664 175 664T169 672L161 694Q160 698 160 700T164 705Q179 717 196 725T237 734Q260
734 281 728T321 714T363 707Q381 707 393 712T418 725Q423 729 426 728T432 721L441 696Q444 690 435 683V683Z" />
<glyph unicode="&#xf6;" horiz-adv-x="598" d="M299 -10Q225 -10 169 24T81 120T50 262Q50 344 81 406T169 504T300 540Q375 540 430 505T517 408T548 264Q548 183 517 122T430 25T299 -10V-10ZM301 43Q357 43 397 70T458 147T480 264Q480 332 458 382T396 460T300
488Q245 488 204 461T141 383T118 264Q118 197 140 147T204 70T301 43V43ZM269 651Q269 643 266 640T254 637H212Q204 637 202 639T199 649V730Q199 742 210 742H259Q269 742 269 731V651ZM401 651Q401 643 398 640T386 637H344Q336 637 334 639T331 649V730Q331
742 341 742H391Q401 742 401 731V651Z" />
<glyph unicode="&#xf7;" horiz-adv-x="551" d="M326 169Q326 156 310 156H239Q226 156 226 168V241Q226 251 235 251H317Q326 251 326 242V169ZM486 357Q486 346 472 346L76 345Q70 345 68 347T65 355V390Q65 400 72 400H477Q486 400 486 392V357ZM326 507Q326
494 310 494H239Q226 494 226 506V579Q226 590 235 590H317Q326 590 326 580V507Z" />
<glyph unicode="&#xf8;" horiz-adv-x="580" d="M58 5Q53 0 48 0T38 5L25 19Q15 30 25 41L521 523Q531 534 540 524L556 507Q564 498 556 491L58 5ZM297 -10Q223 -10 167 24T80 120T49 262Q49 344 80 406T168 504T298 540Q373 540 428 505T515 408T546 264Q546
183 515 122T428 25T297 -10V-10ZM299 43Q355 43 395 70T457 147T478 264Q478 332 457 382T395 460T298 488Q243 488 202 461T139 383T117 264Q117 197 139 147T202 70T299 43V43Z" />
<glyph unicode="&#xf9;" horiz-adv-x="576" d="M252 45Q299 45 341 70T427 139V518Q427 530 440 530H482Q493 530 493 518V11Q493 0 483 0H440Q430 0 430 10V71Q430 76 428 77T421 74Q363 25 321 8T237 -10Q191 -10 155 8T97 61T75 140V517Q75 530 88 530H130Q141
530 141 518V162Q141 110 170 78T252 45V45ZM163 747Q166 754 174 751L404 659Q411 656 408 647L401 627Q400 622 397 621T387 621L159 692Q147 696 151 707L163 747V747Z" />
<glyph unicode="&#xfa;" horiz-adv-x="576" d="M252 45Q299 45 341 70T427 139V518Q427 530 440 530H482Q493 530 493 518V11Q493 0 483 0H440Q430 0 430 10V71Q430 76 428 77T421 74Q363 25 321 8T237 -10Q191 -10 155 8T97 61T75 140V517Q75 530 88 530H130Q141
530 141 518V162Q141 110 170 78T252 45V45ZM405 710Q409 699 396 695L168 624Q163 622 160 623T154 630L148 649Q144 659 152 662L382 754Q390 757 392 749L405 710Z" />
<glyph unicode="&#xfb;" horiz-adv-x="576" d="M252 45Q299 45 341 70T427 139V518Q427 530 440 530H482Q493 530 493 518V11Q493 0 483 0H440Q430 0 430 10V71Q430 76 428 77T421 74Q363 25 321 8T237 -10Q191 -10 155 8T97 61T75 140V517Q75 530 88 530H130Q141
530 141 518V162Q141 110 170 78T252 45V45ZM283 692Q275 699 273 699T261 692L202 643Q196 638 194 637T185 636H138Q132 636 132 639T136 647L237 734Q242 738 246 741T260 744H290Q297 744 301 741T308 735L408 647Q421 636 407 636H356Q351 636 347 637T339
643L283 692Z" />
<glyph unicode="&#xfc;" horiz-adv-x="576" d="M252 45Q299 45 341 70T427 139V518Q427 530 440 530H482Q493 530 493 518V11Q493 0 483 0H440Q430 0 430 10V71Q430 76 428 77T421 74Q363 25 321 8T237 -10Q191 -10 155 8T97 61T75 140V517Q75 530 88 530H130Q141
530 141 518V162Q141 110 170 78T252 45V45ZM241 651Q241 643 238 640T226 637H184Q176 637 174 639T171 649V730Q171 742 182 742H231Q241 742 241 731V651ZM373 651Q373 643 370 640T358 637H316Q308 637 306 639T303 649V730Q303 742 313 742H363Q373 742 373
731V651Z" />
<glyph unicode="&#xfd;" horiz-adv-x="521" d="M107 -165Q78 -165 61 -164T44 -153V-124Q44 -117 49 -115T73 -112H135Q158 -112 176 -96T207 -56T223 -7T220 36L30 515Q28 521 30 525T40 530H85Q91 530 94 528T99 520L259 109Q263 100 268 100T277 113L433 521Q435
526 438 528T446 530H482Q488 530 490 526T491 518L267 -59Q255 -91 239 -111T204 -143T160 -160T107 -165V-165ZM398 710Q402 699 389 695L161 624Q156 622 153 623T147 630L141 649Q137 659 145 662L375 754Q383 757 385 749L398 710Z" />
<glyph unicode="&#xfe;" horiz-adv-x="592" d="M135 742Q147 742 147 729V471Q147 463 150 462T160 467Q170 478 188 495T239 526T319 540Q382 540 432 511T512 423T542 274Q542 186 513 123T432 25T308 -10Q260 -10 224 5T164 40Q155 48 152 46T149 33V-153Q149
-165 138 -165H93Q83 -165 83 -154V728Q83 736 86 739T97 742H135V742ZM149 112Q182 79 217 60T294 41Q347 41 387 68T450 146T474 271Q474 348 450 395T387 466T301 489Q256 489 222 469T168 421T149 364V112V112Z" />
<glyph unicode="&#xff;" horiz-adv-x="521" d="M107 -165Q78 -165 61 -164T44 -153V-124Q44 -117 49 -115T73 -112H135Q158 -112 176 -96T207 -56T223 -7T220 36L30 515Q28 521 30 525T40 530H85Q91 530 94 528T99 520L259 109Q263 100 268 100T277 113L433 521Q435
526 438 528T446 530H482Q488 530 490 526T491 518L267 -59Q255 -91 239 -111T204 -143T160 -160T107 -165V-165ZM235 651Q235 643 232 640T220 637H178Q170 637 168 639T165 649V730Q165 742 176 742H225Q235 742 235 731V651ZM367 651Q367 643 364 640T352 637H310Q302
637 300 639T297 649V730Q297 742 307 742H357Q367 742 367 731V651Z" />
<glyph unicode="&#x2013;" horiz-adv-x="551" d="M486 242Q486 231 472 231L76 230Q70 230 68 232T65 240V277Q65 286 72 286L477 287Q486 287 486 279V242Z" />
<glyph unicode="&#x2014;" horiz-adv-x="873" d="M808 242Q808 231 794 231L76 230Q70 230 68 232T65 240V277Q65 286 72 286L799 287Q808 287 808 279V242Z" />
<glyph unicode="&#x2018;" horiz-adv-x="217" d="M162 742Q166 742 168 739T168 733L124 638Q121 630 122 626T129 622L146 621Q152 621 154 619T156 612V533Q156 524 148 524H63Q55 524 55 532V605Q55 608 58 612L129 734Q132 739 136 740T145 742H162V742Z" />
<glyph unicode="&#x2019;" horiz-adv-x="217" d="M55 524Q51 524 49 527T49 534L93 628Q96 636 95 640T88 644L71 645Q66 645 64 647T61 654V734Q61 742 69 742H154Q162 742 162 734V661Q162 659 159 654L88 532Q86 528 82 526T72 524H55V524Z" />
<glyph unicode="&#x201a;" horiz-adv-x="217" d="M55 -121Q51 -121 49 -118T49 -111L93 -17Q96 -9 95 -5T88 0H71Q66 0 64 2T61 10V89Q61 97 69 97H154Q162 97 162 89V17Q162 14 159 9L88 -113Q86 -117 82 -119T72 -121H55V-121Z" />
<glyph unicode="&#x201c;" horiz-adv-x="381" d="M227 524Q219 524 219 532V605Q219 608 222 612L293 734Q296 739 300 740T309 742H326Q330 742 332 739T332 733L288 638Q285 630 286 626T293 622L309 621Q316 621 318 619T320 612V533Q320 524 312 524H227V524ZM63
524Q55 524 55 532V605Q55 608 58 612L129 734Q132 739 136 740T145 742H162Q166 742 168 739T168 733L124 638Q121 630 122 626T129 622L146 621Q152 621 154 619T156 612V533Q156 524 148 524H63V524Z" />
<glyph unicode="&#x201d;" horiz-adv-x="382" d="M219 524Q215 524 213 527T212 534L257 628Q260 636 259 640T252 644L235 645Q230 645 228 647T225 654V734Q225 742 233 742H318Q325 742 325 734V661Q325 659 323 654L252 532Q250 528 246 526T236 524H219V524ZM55
524Q51 524 49 527T49 534L93 628Q96 636 95 640T88 644L71 645Q66 645 64 647T61 654V734Q61 742 69 742H154Q162 742 162 734V661Q162 659 159 654L88 532Q86 528 82 526T72 524H55V524Z" />
<glyph unicode="&#x201e;" horiz-adv-x="382" d="M219 -121Q215 -121 213 -118T213 -111L257 -17Q260 -9 259 -5T252 0H235Q230 0 228 2T225 10V89Q225 97 233 97H318Q326 97 326 89V17Q326 14 323 9L252 -113Q250 -117 246 -119T236 -121H219V-121ZM55 -121Q51
-121 49 -118T49 -111L93 -17Q96 -9 95 -5T88 0H71Q66 0 64 2T61 10V89Q61 97 69 97H154Q162 97 162 89V17Q162 14 159 9L88 -113Q86 -117 82 -119T72 -121H55V-121Z" />
<glyph unicode="&#x2022;" horiz-adv-x="304" d="M152 292Q128 292 109 303T78 333T66 377Q66 401 77 420T108 451T152 462Q175 462 194 451T225 421T237 377Q237 353 226 334T195 303T152 292V292Z" />
<glyph unicode="&#x2039;" horiz-adv-x="261" d="M211 81Q215 75 203 75H181Q174 75 172 80L41 248Q34 257 40 265L172 443Q175 447 176 447T181 448H205Q209 448 211 446T211 439L106 264Q102 256 106 250L211 81Z" />
<glyph unicode="&#x203a;" horiz-adv-x="262" d="M156 250Q161 257 156 264L51 439Q49 443 51 445T57 448H81Q84 448 86 448T90 443L222 265Q228 258 221 248L91 80Q88 75 81 75H59Q49 75 51 81L156 250V250Z" />
</font>
</defs>
</svg>
