<?xml version="1.0" standalone="no"?>
<!DOCTYPE svg PUBLIC "-//W3C//DTD SVG 1.1//EN" "http://www.w3.org/Graphics/SVG/1.1/DTD/svg11.dtd">
<svg xmlns="http://www.w3.org/2000/svg">
<defs >
<font id="LibreFranklin" horiz-adv-x="568" ><font-face
    font-family="Libre Franklin Thin Black"
    units-per-em="1000"
    panose-1="0 0 0 0 0 0 0 0 0 0"
    ascent="966"
    descent="-246"
    alphabetic="0" />
<glyph unicode=" " horiz-adv-x="200" />
<glyph unicode="!" horiz-adv-x="277" d="M241 29Q241 0 208 0H58Q31 0 31 25V175Q31 197 50 197H223Q241 197 241 177V29ZM202 294Q201 279 194 273T169 266H100Q85 266 81 272T74 291L24 719Q23 730 28 736T43 742H232Q252 742 250 721L202 294Z" />
<glyph unicode="&quot;" horiz-adv-x="509" d="M437 440Q435 424 429 418T404 411H362Q347 411 342 417T335 436L295 720Q294 731 300 736T314 742H459Q480 742 477 722L437 440ZM181 440Q179 424 173 418T148 411H106Q91 411 86 417T79 436L39 720Q38 731 44
736T58 742H203Q224 742 221 722L181 440Z" />
<glyph unicode="#" horiz-adv-x="603" d="M190 31Q188 13 183 6T158 0L120 5Q105 7 98 11T91 29L192 718Q194 729 198 736T211 742L272 736Q292 734 289 716L190 31ZM414 31Q412 13 407 6T382 0L344 5Q329 7 322 11T315 29L416 718Q418 729 422 736T435 742L496
736Q516 734 513 716L414 31ZM565 250Q565 222 532 222H31Q16 222 11 228T5 247V295Q5 318 24 318H547Q565 318 565 298V250ZM598 460Q598 432 565 432H64Q49 432 44 438T38 457V505Q38 528 57 528H580Q598 528 598 508V460Z" />
<glyph unicode="$" horiz-adv-x="687" d="M655 234Q655 172 627 122T547 40T424 -1Q410 -2 407 -6T403 -22V-44Q403 -73 372 -73H305Q278 -73 278 -47V-20Q278 -9 275 -5T260 -1Q192 4 140 24T39 78Q9 99 25 117L102 204Q112 215 120 215T137 207Q162 184 193
166T262 138Q280 135 280 149L281 272Q281 280 279 283T269 289Q183 302 132 335T60 416T38 515Q38 567 62 611T136 687T257 734Q264 736 272 741T281 755V786Q281 794 286 798T296 802H381Q392 802 397 798T403 780V746Q403 739 419 735Q469 722 509 706T584 668Q603
658 589 639L523 551Q516 543 509 542T489 550Q476 561 458 573T416 593Q409 595 406 593T402 585V470Q402 461 415 458L482 442Q532 430 571 401T632 329T655 234V234ZM281 586Q281 603 267 600Q231 591 216 575T200 539Q200 522 207 510T227 489T261 478Q272
477 276 481T281 499V586ZM402 144Q402 134 417 137Q453 145 472 161T491 200Q491 226 473 244T413 269Q407 270 405 268T402 258V144V144Z" />
<glyph unicode="%" horiz-adv-x="963" d="M229 753Q284 753 328 723T399 644T426 541Q426 487 400 440T330 363T229 334Q173 334 128 363T56 439T30 541Q30 596 56 644T128 722T229 753V753ZM228 432Q260 432 270 459T281 540Q281 597 270 626T228 656Q208 656
197 643T180 604T175 540Q175 505 179 481T196 444T228 432V432ZM736 409Q791 409 835 379T906 300T933 197Q933 143 907 96T837 19T736 -10Q680 -10 635 19T563 95T537 197Q537 252 563 300T635 378T736 409V409ZM735 88Q756 88 767 100T783 136T788 196Q788 234
783 260T767 299T735 312Q715 312 704 299T687 260T682 196Q682 161 686 137T703 100T735 88V88ZM292 8Q284 -4 263 -4L211 -3Q195 -3 193 8T197 31L666 737Q673 747 679 748T694 750H760Q768 750 772 746T770 730L292 8Z" />
<glyph unicode="&amp;" horiz-adv-x="878" d="M400 753Q473 753 529 732T616 675T648 589Q648 559 630 525T581 460T512 410Q505 406 504 403T509 393L582 320Q589 313 594 313T606 323Q614 334 621 344T634 364T646 386T657 411Q666 428 685 422L786 390Q797
387 802 377T803 357Q792 334 781 314T754 271T715 217Q708 207 708 204T717 195Q730 187 745 182T778 173T816 168Q839 167 839 146V29Q839 16 833 8T815 0Q763 0 720 7T641 28T571 65Q561 71 556 71T540 64Q489 28 431 12T298 -5Q174 -5 107 47T39 195Q39 254
81 304T215 404Q225 409 225 414T217 429Q189 461 173 498T156 570Q156 623 187 664T274 729T400 753V753ZM410 638Q392 638 379 631T359 612T352 589Q352 581 358 570T371 550L408 505Q413 501 419 501T429 504Q450 515 463 534T477 578Q477 605 459 621T410 638V638ZM332
296Q324 305 318 305T305 300Q282 285 268 264T254 221Q254 201 266 182T298 152T343 140Q363 140 387 147T426 167Q432 172 434 177T429 192L332 296V296Z" />
<glyph unicode="&apos;" horiz-adv-x="253" d="M181 440Q179 424 173 418T148 411H106Q91 411 86 417T79 436L39 720Q38 731 44 736T58 742H203Q224 742 221 722L181 440Z" />
<glyph unicode="(" horiz-adv-x="332" d="M305 742Q314 742 316 737T315 727Q266 629 237 516T207 284Q207 171 235 68T315 -148Q318 -154 316 -159T304 -165H195Q183 -165 174 -152Q133 -81 102 -14T53 127T35 285Q35 410 72 522T172 728Q183 742 200 742H305V742Z" />
<glyph unicode=")" horiz-adv-x="332" d="M27 742V742H132Q149 742 160 728Q222 634 259 522T297 285Q297 200 280 127T231 -13T158 -152Q149 -165 137 -165H28Q19 -165 17 -160T17 -148Q70 -35 97 68T125 284Q125 403 96 516T17 727Q14 732 16 737T27 742Z" />
<glyph unicode="*" horiz-adv-x="521" d="M267 421Q265 425 261 425T255 421L181 294Q177 288 169 287T153 292L85 340Q70 351 81 364L175 473Q178 477 177 481T169 487L36 523Q19 528 27 549L54 623Q61 640 75 633L201 575Q207 572 211 574T214 582L202 726Q201
731 205 736T217 742H307Q315 742 319 737T322 726L308 581Q306 569 318 573L447 631Q466 639 472 618L495 545Q501 526 482 521L352 486Q347 485 347 481T350 472L440 367Q445 361 444 353T431 337L372 296Q362 289 353 290T340 297L267 421Z" />
<glyph unicode="+" horiz-adv-x="600" d="M562 331Q562 303 529 303H66Q51 303 46 309T40 328V421Q40 444 59 444H544Q562 444 562 424V331ZM259 113Q231 113 231 146V609Q231 624 237 629T256 635H349Q372 635 372 616V131Q372 113 352 113H259Z" />
<glyph unicode="," horiz-adv-x="279" d="M56 -165Q46 -165 41 -157T40 -140L90 -32Q104 0 81 0H59Q32 0 32 25V176Q32 198 51 198H224Q242 198 242 178V32Q242 24 238 17L124 -142Q116 -153 103 -159T78 -165H56V-165Z" />
<glyph unicode="-" horiz-adv-x="380" d="M339 221Q339 193 306 193H67Q52 193 47 199T41 218V310Q41 333 60 333H321Q339 333 339 313V221Z" />
<glyph unicode="." horiz-adv-x="279" d="M242 29Q242 0 209 0H59Q32 0 32 25V179Q32 201 51 201H224Q242 201 242 181V29Z" />
<glyph unicode="/" horiz-adv-x="380" d="M17 0Q-5 0 1 19L250 724Q257 742 276 742H359Q387 742 376 709L135 26Q130 11 122 6T100 0H17V0Z" />
<glyph unicode="0" horiz-adv-x="722" d="M362 753Q434 753 494 725T598 644T666 522T691 369Q691 259 649 174T533 41T362 -8Q265 -8 190 40T73 174T31 369Q31 452 55 522T124 644T229 724T362 753V753ZM361 148Q398 148 420 169T451 239T461 368Q461 452 451
502T419 576T361 599Q325 599 303 576T271 502T261 368Q261 288 271 240T303 170T361 148V148Z" />
<glyph unicode="1" horiz-adv-x="537" d="M486 164Q509 164 509 145V22Q509 13 503 7T484 0H59Q35 0 35 21V145Q35 164 57 164H146Q158 164 158 173V507Q158 524 141 520L61 502Q34 496 34 525V609Q34 622 38 627T52 638L232 728Q248 736 258 739T282 742H367Q385
742 385 721V176Q385 164 396 164H486V164Z" />
<glyph unicode="2" horiz-adv-x="673" d="M256 328Q308 371 339 399T386 446T407 480T413 514Q413 536 403 553T373 581T326 591Q301 591 280 581T239 546T197 481Q193 474 185 473T165 477L46 536Q34 542 32 553T37 575Q93 666 165 709T338 752Q429 752 495 722T597
639T633 516Q633 478 621 444T579 379T501 314L326 197Q319 193 319 189T332 185H617Q640 185 640 166V22Q640 13 634 7T615 0H56Q41 0 35 5T29 25V124Q29 129 32 135T47 153T88 189L256 328Z" />
<glyph unicode="3" horiz-adv-x="685" d="M58 618Q48 629 58 644Q82 676 125 700T223 738T335 752Q429 752 496 728T598 659T634 554Q634 511 606 468T522 408Q511 404 511 398T521 387Q563 373 593 348T640 290T657 221Q657 144 620 93T509 16T323 -10Q262 -10
204 7T100 55T28 125Q21 136 23 146T36 162L137 232Q147 238 153 238T164 233Q195 202 220 183T272 155T335 146Q382 146 408 165T434 217Q434 241 421 259T384 287T328 299L244 301Q223 301 223 318V439Q223 453 244 456L311 460Q343 462 365 472T400 500T413
539Q413 556 402 570T373 592T331 600Q288 600 254 584T179 529Q172 522 168 522T155 528L58 618V618Z" />
<glyph unicode="4" horiz-adv-x="716" d="M348 717Q361 733 370 737T399 742H563Q582 742 582 721V322Q582 310 593 310H667Q689 310 689 291V181Q689 159 665 159H594Q582 159 582 146V29Q582 0 549 0H378Q351 0 351 25L352 149Q352 159 338 159H53Q28 159 28
181V285Q28 296 36 309T61 345L348 717V717ZM346 310Q355 310 355 317V510Q355 524 352 524T341 514L204 323Q194 310 211 310H346Z" />
<glyph unicode="5" horiz-adv-x="690" d="M573 742Q595 742 599 737T603 713L597 585Q596 572 590 567T569 562H270Q250 562 249 544L241 477Q240 468 245 465T257 463Q297 474 324 479T385 484Q466 484 528 456T626 373T662 242Q662 163 623 107T514 20T349 -10Q240
-10 156 27T33 121Q26 132 24 143T35 163L143 236Q161 249 176 232Q196 209 216 189T263 158T325 146Q362 146 387 158T426 190T439 235Q439 258 428 279T392 313T328 326Q305 326 284 320T228 299Q218 295 214 295T198 301L79 365Q68 371 67 380T66 403L95 712Q97
729 105 735T140 742H573Z" />
<glyph unicode="6" horiz-adv-x="701" d="M373 750Q430 750 476 734T558 694T613 642T638 590Q640 582 639 574T626 563L483 521Q473 518 468 524T461 534Q445 561 427 578T373 596Q338 596 312 579T271 529T256 453Q256 434 260 431T281 433Q311 445 339 453T409
461Q487 461 546 433T640 355T674 240Q674 169 633 113T522 24T364 -8Q262 -8 187 37T72 163T31 352Q31 477 74 566T195 702T373 750V750ZM357 317Q341 317 323 313T291 303T268 291Q262 287 260 282T258 263Q258 233 265 210T285 170T316 145T356 136Q382 136
403 148T437 181T450 231Q450 260 437 279T402 307T357 317V317Z" />
<glyph unicode="7" horiz-adv-x="632" d="M569 742Q588 742 597 734T606 714L602 647Q601 637 590 615T570 578Q536 526 507 469T455 351T414 234T387 125T375 33Q374 0 350 0H139Q111 0 119 29Q136 85 155 137T201 249T269 379T368 544Q373 552 372 557T359 562H54Q25
562 27 587L41 725Q43 742 71 742H569Z" />
<glyph unicode="8" horiz-adv-x="693" d="M339 752Q423 752 489 725T594 650T633 544Q633 505 609 473T540 418Q523 410 539 398Q590 368 617 340T655 282T666 219Q666 146 624 95T506 17T333 -10Q244 -10 175 12T67 77T28 182Q28 229 52 267T144 339Q151 342
152 345T146 354Q123 373 100 393T63 443T48 515Q48 579 82 632T181 719T339 752V752ZM343 607Q320 607 301 600T270 578T259 544Q259 503 307 486L371 464Q385 459 398 464T422 481T439 508T445 536Q445 563 419 585T343 607V607ZM347 135Q393 135 417 152T441
199Q441 219 429 236T376 267L305 292Q290 297 275 294T247 280T226 253T218 218Q218 180 247 158T347 135V135Z" />
<glyph unicode="9" horiz-adv-x="701" d="M328 -8Q271 -8 225 8T143 48T88 100T63 152Q62 160 63 168T75 179L218 221Q228 224 233 219T240 208Q257 181 275 164T328 146Q363 146 389 163T430 213T445 289Q445 308 441 311T420 309Q390 297 362 289T292 281Q215
281 155 309T61 387T27 502Q27 574 68 630T179 718T337 750Q440 750 514 705T629 579T670 390Q670 266 627 177T506 40T328 -8V-8ZM344 425Q361 425 378 429T410 439T433 451Q439 456 441 461T443 479Q443 509 436 532T416 572T385 597T345 606Q319 606 298 594T264
561T251 511Q251 482 264 463T299 435T344 425V425Z" />
<glyph unicode=":" horiz-adv-x="279" d="M242 357Q242 328 209 328H59Q32 328 32 354V503Q32 525 51 525H224Q242 525 242 505V357ZM242 32Q242 3 209 3H59Q32 3 32 29V178Q32 200 51 200H224Q242 200 242 180V32Z" />
<glyph unicode=";" horiz-adv-x="279" d="M56 -169Q46 -169 41 -161T40 -144L90 -32Q103 0 81 0H59Q32 0 32 25V176Q32 198 51 198H224Q242 198 242 178V32Q242 24 238 17L124 -146Q116 -157 103 -163T78 -169H56V-169ZM59 321Q32 321 32 346V500Q32 522 51 522H224Q242
522 242 502V350Q242 321 209 321H59V321Z" />
<glyph unicode="&lt;" horiz-adv-x="599" d="M544 114Q544 95 533 89T506 89L63 259Q51 264 43 272T35 293V404Q35 419 42 427T63 440L507 611Q522 617 533 609T544 586V490Q544 460 499 443L246 348L499 256Q523 247 533 238T544 210V114Z" />
<glyph unicode="=" horiz-adv-x="600" d="M562 427Q562 399 529 399H66Q51 399 46 405T40 424V517Q40 540 59 540H544Q562 540 562 520V427ZM562 186Q562 158 529 158H66Q51 158 46 164T40 183V276Q40 299 59 299H544Q562 299 562 279V186Z" />
<glyph unicode="&gt;" horiz-adv-x="599" d="M55 210Q55 228 65 237T100 256L353 348L100 443Q55 460 55 490V586Q55 600 66 608T92 611L536 440Q549 436 556 428T564 404V293Q564 280 556 272T536 259L93 89Q77 83 66 89T55 114V210V210Z" />
<glyph unicode="?" horiz-adv-x="546" d="M357 29Q357 0 324 0H173Q158 0 153 6T147 25V175Q147 197 166 197H339Q357 197 357 177V29ZM6 561Q-4 563 -5 571T-4 588Q28 668 96 710T264 752Q342 752 400 728T490 665T522 580Q522 535 503 505T455 453T399 409T351
360T331 293Q331 283 324 276T306 269H201Q175 269 175 298Q175 348 190 383T228 445T273 491T311 529T327 569Q327 593 308 607T262 622Q241 622 222 613T187 587T160 545Q156 535 151 533T134 533L6 561Z" />
<glyph unicode="@" horiz-adv-x="834" d="M670 -46Q639 -71 576 -92T428 -113Q335 -113 262 -84T138 -4T60 116T33 262Q33 343 61 415T144 542T276 629T450 661Q520 661 585 643T703 585T786 485T817 338Q817 263 792 205T722 114T617 81Q570 81 547 97T515 124Q511
129 509 129T502 123Q480 98 447 83T372 67Q326 67 290 89T234 150T213 244Q213 304 238 356T310 442T422 475Q464 475 486 462T525 433Q528 430 531 431T535 437L536 442Q537 449 547 449H634Q643 449 642 441L607 235Q602 206 610 196T631 185Q649 185 666 200T696
247T708 332Q708 398 687 442T630 512T548 549T450 560Q367 560 309 537T215 472T163 378T146 265Q146 193 167 140T228 51T323 -3T445 -21Q489 -21 518 -15T571 3T616 29Q630 38 637 28L677 -26Q682 -32 679 -36T670 -46V-46ZM345 258Q345 228 360 203T408 178Q434
178 454 193T485 233T497 283Q497 303 490 321T468 352T432 364Q410 364 390 350T358 312T345 258V258Z" />
<glyph unicode="A" horiz-adv-x="799" d="M43 0Q32 0 27 10T28 37L270 719Q275 731 281 736T300 742H497Q523 742 533 715L773 34Q777 24 774 12T759 0H563Q546 0 541 17L502 132Q500 137 498 140T487 144H275Q263 144 260 133L219 15Q217 9 212 5T195 0H43V0ZM437
314Q452 314 446 334L386 505Q384 510 380 510T374 505L313 335Q305 314 323 314H437Z" />
<glyph unicode="B" horiz-adv-x="739" d="M75 0Q65 0 59 6T52 22V716Q52 727 59 734T77 742H375Q530 742 611 693T692 546Q692 494 664 458T561 386Q559 385 559 383T561 379Q644 348 677 307T710 202Q710 99 632 50T391 0H75V0ZM386 150Q430 150 452 174T474
227Q474 248 464 264T435 289T391 298H302Q279 298 279 277V172Q279 150 296 150H386ZM391 452Q409 452 423 457T447 471T462 493T468 520Q468 553 444 572T384 592H302Q279 592 279 572V474Q279 452 296 452H391Z" />
<glyph unicode="C" horiz-adv-x="737" d="M385 752Q448 752 501 735T596 687T664 614T701 522Q706 501 703 495T688 487L513 476Q502 476 499 480T494 495Q486 539 464 568T391 598Q335 598 302 549T268 377Q268 253 298 204T390 154Q440 154 478 179T543 271Q548
283 571 279L696 254Q701 253 707 247T710 221Q707 205 694 177T657 117T595 56T505 9T383 -10Q276 -10 197 40T74 179T30 381Q30 494 73 577T197 706T385 752V752Z" />
<glyph unicode="D" horiz-adv-x="771" d="M79 742Q104 742 140 742T215 742T288 742T345 741Q479 737 566 689T697 560T740 372Q740 265 696 181T564 48T344 0H81Q52 0 52 30V717Q52 731 58 736T79 742V742ZM289 585Q279 585 279 571V172Q279 157 293 157H300Q363
157 408 178T477 247T502 374Q502 444 482 490T420 561T313 585H289V585Z" />
<glyph unicode="E" horiz-adv-x="671" d="M52 719Q52 742 71 742H611Q629 742 629 721L628 605Q628 578 602 578H302Q279 578 279 559V474Q279 453 297 453H477Q498 453 498 433V309Q498 302 494 297T480 292H295Q279 292 279 278V178Q279 164 291 164H616Q638
164 638 145V22Q638 13 633 7T614 0H79Q52 0 52 25V719V719Z" />
<glyph unicode="F" horiz-adv-x="650" d="M52 719Q52 742 71 742H604Q622 742 622 721L621 605Q621 578 596 578H302Q279 578 279 559V465Q279 445 297 445H480Q500 445 500 425V303Q500 286 482 286H295Q279 286 279 271V29Q279 0 246 0H79Q63 0 58 6T52 25V719V719Z" />
<glyph unicode="G" horiz-adv-x="761" d="M380 -10Q275 -10 196 38T74 171T30 368Q30 484 76 570T204 704T393 752Q483 752 550 720T657 637T710 533Q715 512 712 506T696 498L525 472Q513 472 510 477T505 492Q500 520 486 543T448 582T388 597Q351 597 324 577T283
508T268 374Q268 284 284 235T329 166T396 146Q417 146 434 150T464 164T487 186T504 216L507 225Q513 242 498 242H404Q394 242 389 246T384 264V360Q384 377 405 377L685 375Q704 375 713 367T723 344V17Q723 10 719 5T706 0H668Q659 0 652 4T636 19L596 77Q594
80 592 80T585 75Q567 58 542 38T478 4T380 -10V-10Z" />
<glyph unicode="H" horiz-adv-x="762" d="M295 297Q279 297 279 282V29Q279 0 246 0H79Q63 0 58 6T52 25V719Q52 742 71 742H261Q279 742 279 721V489Q279 469 297 469H465Q483 469 483 489V721Q483 742 501 742H691Q710 742 710 719V25Q710 12 705 6T683 0H516Q483
0 483 29V282Q483 297 467 297H295Z" />
<glyph unicode="I" horiz-adv-x="331" d="M261 742Q279 742 279 721V29Q279 13 271 7T246 0H79Q63 0 58 6T52 25V719Q52 742 71 742H261Z" />
<glyph unicode="J" horiz-adv-x="467" d="M420 212Q420 89 360 40T182 -10Q151 -10 122 -7T58 2Q41 5 34 14T27 45L36 159Q38 185 60 182Q72 181 85 178T115 175Q152 175 172 196T193 268V719Q193 742 213 742H402Q420 742 420 721V212V212Z" />
<glyph unicode="K" horiz-adv-x="772" d="M745 31Q751 19 749 10T731 0H536Q509 0 500 20L378 298Q370 311 356 293L285 202Q279 195 279 180V29Q279 0 246 0H79Q63 0 58 6T52 25V719Q52 742 71 742H261Q279 742 279 721V468Q279 456 283 456T294 463L478 721Q486
732 494 737T521 742H673Q690 742 697 733T694 713L530 512Q519 498 527 480L745 31V31Z" />
<glyph unicode="L" horiz-adv-x="643" d="M52 719Q52 742 71 742H261Q279 742 279 721V178Q279 164 291 164H592Q615 164 615 145V22Q615 13 609 7T590 0H79Q63 0 58 6T52 25V719V719Z" />
<glyph unicode="M" horiz-adv-x="977" d="M78 0Q52 0 52 28V719Q52 742 73 742H353Q366 742 371 739T381 724L485 406Q488 398 492 398T498 406L591 713Q599 742 618 742H907Q925 742 925 721V29Q925 0 893 0H724Q709 0 704 6T698 25V474Q698 482 694 482T686
473L542 18Q535 0 518 0H413Q395 0 389 18L245 465Q241 477 237 476T233 464V22Q233 9 229 5T211 0H78V0Z" />
<glyph unicode="N" horiz-adv-x="761" d="M694 742Q709 742 709 725V18Q709 10 703 5T686 0H549Q541 0 536 2T522 15L247 388Q243 393 240 392T237 386V22Q238 0 213 0H77Q52 0 52 20V719Q52 742 74 742H237Q250 742 256 739T271 724L511 390Q518 381 522 381T527
394V721Q527 742 549 742H694Z" />
<glyph unicode="O" horiz-adv-x="780" d="M391 -10Q281 -10 200 36T75 168T31 369Q31 485 76 571T202 704T391 752Q499 752 579 705T704 571T749 369Q749 254 705 169T581 37T391 -10V-10ZM391 146Q456 146 483 196T511 366Q511 490 483 544T391 598Q326 598 298
544T269 366Q269 246 296 196T391 146V146Z" />
<glyph unicode="P" horiz-adv-x="731" d="M703 501Q703 428 668 376T572 295T428 266H291Q279 266 279 255V29Q279 0 246 0H78Q63 0 58 6T52 25V719Q52 742 71 742H402Q484 742 552 716T662 636T703 501V501ZM471 504Q471 528 460 545T430 572T388 582H302Q279
582 279 561V448Q279 426 296 426H394Q430 426 450 449T471 504V504Z" />
<glyph unicode="Q" horiz-adv-x="782" d="M31 369Q31 485 76 571T202 704T391 752Q499 752 580 705T705 571T750 369Q750 279 723 208T645 86Q643 84 643 78Q643 70 656 60T691 41T733 30Q744 29 747 24T750 13V-97Q750 -116 740 -122T706 -128Q631 -128 576 -97T477
-10Q473 -4 462 -6Q444 -8 428 -9T391 -10Q281 -10 200 36T75 168T31 369V369ZM269 367Q269 246 296 196T391 146Q457 146 484 196T512 367Q512 491 484 544T391 598Q326 598 298 545T269 367V367Z" />
<glyph unicode="R" horiz-adv-x="739" d="M701 32Q706 19 701 10T683 0H489Q468 0 462 21L368 279Q362 295 337 295H291Q284 295 282 291T279 284V29Q279 0 246 0H78Q63 0 58 6T52 25V719Q52 742 71 742H405Q550 742 630 687T710 530Q710 483 693 443T647 375T579
331Q569 327 575 312L701 32V32ZM396 444Q434 444 454 464T475 516Q475 554 450 574T390 594H302Q279 594 279 574V465Q279 444 296 444H396V444Z" />
<glyph unicode="S" horiz-adv-x="701" d="M494 543Q476 563 449 580T363 597Q307 597 284 581T261 546Q261 537 266 528T286 510T325 495L491 452Q585 429 629 370T674 234Q674 160 635 105T525 20T354 -10Q281 -10 216 6T101 53T28 122Q22 133 23 140T34 155L137
226Q151 235 160 234T175 224Q197 196 219 178T269 152T337 144Q392 144 425 159T458 202Q458 214 451 224T431 243T395 256L243 293Q183 308 139 340T71 418T47 515Q47 580 84 634T191 720T355 752Q415 752 469 739T567 701T633 644Q638 637 640 630T633 614L524
535Q517 530 511 531T494 543V543Z" />
<glyph unicode="T" horiz-adv-x="704" d="M28 719Q28 729 34 735T53 742H651Q664 742 670 736T676 719V600Q676 581 654 581H477Q465 581 465 571V22Q465 0 446 0H256Q238 0 238 20V567Q238 581 227 581H51Q28 581 28 600V719Z" />
<glyph unicode="U" horiz-adv-x="728" d="M684 293Q684 178 644 112T532 18T364 -10Q244 -10 174 27T74 136T44 313V719Q44 742 63 742H253Q271 742 271 721V289Q271 213 300 181T381 149Q412 149 438 161T481 205T497 292V719Q497 742 516 742H666Q684 742 684
721V293V293Z" />
<glyph unicode="V" horiz-adv-x="751" d="M707 742Q719 742 724 733T726 713L494 25Q487 0 457 0H295Q265 0 258 25L26 713Q22 724 27 733T45 742H238Q257 742 263 721L397 282Q402 267 407 283L532 721Q537 742 558 742H707V742Z" />
<glyph unicode="W" horiz-adv-x="1109" d="M1052 742Q1072 742 1079 731T1082 702L879 25Q870 0 843 0H705Q676 0 669 25L565 377Q562 389 558 389T549 375L446 25Q439 0 410 0H267Q240 0 231 25L27 702Q23 719 30 730T57 742H222Q238 742 244 737T254 721L360
350Q363 339 366 339T372 346L477 721Q479 731 486 736T509 742H649Q665 742 671 737T681 721L791 341Q793 335 797 334T802 339L904 721Q906 731 913 736T936 742H1052V742Z" />
<glyph unicode="X" horiz-adv-x="756" d="M719 51Q738 22 732 11T705 0H525Q494 0 483 20L373 208Q365 222 359 222T345 209L237 20Q231 9 220 5T194 0H52Q31 0 26 10T39 51L236 356Q244 367 244 374T236 392L34 707Q27 718 30 730T50 742H239Q256 742 264 737T279
721L370 560Q375 552 381 552T392 560L483 721Q489 732 497 737T522 742H677Q695 742 696 731T690 709L501 419Q494 409 495 402T503 383L719 51V51Z" />
<glyph unicode="Y" horiz-adv-x="774" d="M733 742Q746 742 749 736T747 719L513 341Q506 331 505 319T503 275V29Q503 0 470 0H302Q287 0 282 6T276 25V288Q276 304 273 312T262 332L28 714Q21 726 25 734T46 742H247Q262 742 268 738T281 721L404 499Q409 490
412 490T421 498L542 721Q548 734 555 738T576 742H733V742Z" />
<glyph unicode="Z" horiz-adv-x="714" d="M52 0Q37 0 32 5T26 25V70Q26 86 29 93T47 121L355 561Q365 577 346 577H81Q68 577 64 582T59 601V721Q59 742 77 742H664Q683 742 683 722V671Q683 660 680 652T666 630L346 180Q341 172 346 169T358 166H655Q677 166
677 147V22Q677 13 672 7T653 0H52V0Z" />
<glyph unicode="[" horiz-adv-x="336" d="M46 720Q46 742 72 742H306Q321 742 321 729V649Q321 635 306 635H230Q205 635 205 608V-37Q205 -50 209 -54T226 -58H303Q321 -58 321 -74V-147Q321 -165 303 -165H75Q46 -165 46 -139V720V720Z" />
<glyph unicode="\" horiz-adv-x="380" d="M279 0Q266 0 258 5T244 26L3 709Q-8 742 20 742H103Q122 742 129 724L378 19Q384 0 362 0H279V0Z" />
<glyph unicode="]" horiz-adv-x="336" d="M290 720V720V-139Q290 -165 261 -165H33Q15 -165 15 -147V-74Q15 -58 33 -58H110Q122 -58 126 -54T131 -37V608Q131 635 106 635H30Q15 635 15 649V729Q15 742 30 742H264Q290 742 290 720Z" />
<glyph unicode="^" horiz-adv-x="475" d="M248 319Q244 330 237 330T224 319L146 129Q143 122 137 121T120 120H37Q16 120 26 144L182 504Q192 527 214 535T258 537T291 505L447 141Q455 120 432 120H353Q344 120 336 121T326 129L248 319Z" />
<glyph unicode="_" horiz-adv-x="562" d="M522 -132Q522 -160 489 -160H66Q51 -160 46 -154T40 -135V-43Q40 -20 59 -20H504Q522 -20 522 -40V-132Z" />
<glyph unicode="`" horiz-adv-x="320" d="M41 739Q48 757 62 751L301 653Q315 647 309 629L294 586Q290 576 284 573T265 573L32 629Q5 636 13 661L41 739V739Z" />
<glyph unicode="a" horiz-adv-x="573" d="M313 42Q286 20 251 5T168 -10Q93 -10 51 32T8 136Q8 195 45 239T152 307T315 332H322Q326 332 331 334T337 346V363Q337 391 323 406T278 421Q257 421 235 412T200 374Q196 366 192 364T173 363L42 389Q35 391 32 396T35
421Q58 485 123 512T287 540Q380 540 432 519T505 461T527 375V27Q527 12 523 6T504 0H367Q354 0 349 10T341 35L340 42Q337 62 313 42V42ZM337 224Q337 242 322 242H318Q306 242 287 238T248 224T216 199T202 163Q202 142 217 129T259 116Q279 116 292 122T314
135Q323 143 330 151T337 171V224V224Z" />
<glyph unicode="b" horiz-adv-x="616" d="M68 0Q52 0 47 6T41 25V719Q41 742 60 742H223Q241 742 241 721V496Q241 484 247 483T260 488Q281 508 301 519T343 535T387 540Q452 540 498 507T568 414T593 269Q593 142 535 66T366 -10Q335 -10 307 0T254 29T210 73Q206
78 203 77T197 70L181 23Q174 0 155 0H68ZM241 185Q241 160 250 143T275 116T312 107Q338 107 355 122T382 172T391 265Q391 352 372 385T315 418Q292 418 274 408T241 378V185Z" />
<glyph unicode="c" horiz-adv-x="556" d="M298 540Q370 540 420 514T499 448T536 370Q543 345 518 344L381 337Q367 336 364 351Q362 364 357 378T340 403T303 414Q279 414 261 399T233 352T223 265Q223 210 234 177T265 129T314 114Q355 114 374 136T413 193Q415
197 419 198T433 198L527 180Q541 177 536 157Q532 138 517 110T474 54T403 9T298 -10Q218 -10 156 24T57 120T21 263Q21 346 57 408T156 505T298 540V540Z" />
<glyph unicode="d" horiz-adv-x="616" d="M403 0Q393 0 386 5T378 23V42Q378 49 373 50T363 46Q344 28 324 16T279 -3T223 -10Q164 -10 119 20T49 112T23 263Q23 347 52 409T130 505T233 540Q267 540 296 529T357 488Q365 482 370 483T376 496V721Q376 742 394
742H556Q575 742 575 719V25Q575 12 570 6T548 0H403V0ZM375 378Q359 397 344 406T305 416Q282 416 264 402T235 355T225 264Q225 207 234 173T262 125T305 110Q325 110 340 118T365 142T375 176V378V378Z" />
<glyph unicode="e" horiz-adv-x="590" d="M227 212Q227 182 240 162T277 132T330 122Q356 122 381 134T439 178Q443 182 446 182T460 179L551 142Q569 135 555 118Q519 68 483 40T403 1T303 -10Q223 -10 159 24T58 118T21 256Q21 341 59 405T161 504T299 540Q378
540 439 506T535 409T571 254Q571 241 569 236T553 229H242Q235 229 231 225T227 212V212ZM360 332Q370 332 373 334T377 346Q377 359 370 377T348 409T308 423Q288 423 270 414T241 384T230 333L360 332Z" />
<glyph unicode="f" horiz-adv-x="418" d="M375 530Q388 530 394 524T400 508V414Q400 395 378 395H316Q304 395 304 383V22Q304 0 285 0H122Q104 0 104 20V385Q104 395 96 395H40Q18 395 18 414V508Q18 517 23 523T42 530H90Q104 530 104 548V601Q104 666 146
704T262 742H375Q404 742 404 716L405 632Q405 624 401 618T387 612H344Q327 612 313 597T299 561V543Q299 530 312 530H375V530Z" />
<glyph unicode="g" horiz-adv-x="653" d="M615 562Q623 562 629 557T635 537V447Q635 430 628 424T609 421Q599 424 587 426T565 428Q538 428 545 405Q547 398 548 390T550 374Q550 329 521 292T435 232T293 209Q260 209 240 206T210 196T200 182Q200 171 211
167T244 161L396 152Q507 145 558 105T610 3Q610 -73 534 -124T307 -175Q150 -175 73 -146T-4 -53Q-4 -19 24 -1T93 28Q107 32 93 39Q67 52 47 71T27 122Q27 146 43 164T84 198T136 225Q141 227 144 230T139 237Q90 258 63 292T35 373Q35 445 103 491T305 538Q362
538 404 526T472 493Q480 487 489 488T503 496Q517 515 537 530T579 553T615 562V562ZM291 300Q333 300 351 322T369 370Q369 401 351 423T291 445Q254 445 234 423T213 370Q213 343 233 322T291 300V300ZM226 8Q205 9 190 5T166 -8T157 -27Q157 -45 171 -58T219
-79T317 -86Q376 -86 406 -72T437 -35Q437 -21 420 -10T371 2L226 8Z" />
<glyph unicode="h" horiz-adv-x="605" d="M68 0Q42 0 42 25V719Q42 742 61 742H221Q239 742 239 721V472Q239 466 242 465T252 468Q281 496 307 511T360 533T412 540Q486 540 527 498T568 375V30Q568 0 538 0H391Q378 0 373 5T368 25V351Q368 374 354 386T316
399Q301 399 288 394T263 377T242 349V29Q242 0 209 0H68V0Z" />
<glyph unicode="i" horiz-adv-x="282" d="M241 29Q241 13 233 7T208 0H67Q52 0 47 6T41 25V507Q41 530 60 530H223Q241 530 241 510V29ZM241 603Q241 574 208 574H67Q52 574 47 580T41 600V719Q41 742 60 742H223Q241 742 241 721V603Z" />
<glyph unicode="j" horiz-adv-x="283" d="M242 29Q242 -70 191 -120T32 -170Q-10 -170 -23 -166T-36 -145L-37 -43Q-37 -35 -32 -27T-17 -16L18 -10Q28 -7 35 2T42 36V507Q42 530 62 530H224Q242 530 242 510V29V29ZM242 603Q242 574 210 574H69Q42 574 42 600V719Q42
742 62 742H224Q242 742 242 721V603Z" />
<glyph unicode="k" horiz-adv-x="631" d="M615 28Q620 20 615 10T596 0H425Q412 0 405 7T392 26L320 198Q316 208 312 209T299 203L251 158Q247 154 245 148T242 130V29Q242 13 235 7T210 0H69Q53 0 48 6T42 25V719Q42 742 61 742H224Q242 742 242 721V346Q242
342 245 340T254 344L404 513Q421 530 435 530H572Q589 530 592 521T586 501L457 372Q450 364 449 358T455 337L615 28V28Z" />
<glyph unicode="l" horiz-adv-x="284" d="M242 29Q242 13 234 7T209 0H67Q40 0 40 25L45 719Q45 742 64 742H224Q242 742 242 721V29Z" />
<glyph unicode="m" horiz-adv-x="928" d="M67 0Q41 0 41 25V507Q41 530 60 530H220Q238 530 238 510V465Q238 459 241 457T251 461Q273 484 298 502T352 530T411 541Q461 541 498 517T553 445Q555 441 558 441T565 446Q584 472 613 493T675 527T738 540Q806 540
849 497T892 373V30Q892 0 861 0H715Q702 0 697 5T692 25V351Q692 374 678 386T640 399Q628 399 616 394T593 380T574 360Q569 353 568 347T566 333V30Q566 0 536 0H390Q378 0 373 5T367 25V351Q367 374 353 386T315 399Q293 399 274 387T241 349V29Q241 0 208
0H67V0Z" />
<glyph unicode="n" horiz-adv-x="604" d="M67 0Q41 0 41 25V507Q41 530 60 530H221Q239 530 239 510V465Q239 459 242 457T252 461Q273 484 298 502T351 530T411 540Q481 540 524 496T568 378V30Q568 0 538 0H391Q378 0 373 5T368 25V351Q368 374 354 386T315
399Q300 399 287 394T262 377T241 349V29Q241 0 208 0H67V0Z" />
<glyph unicode="o" horiz-adv-x="600" d="M299 -10Q217 -10 155 25T57 121T21 262Q21 346 58 408T158 505T300 540Q384 540 446 504T544 406T579 262Q579 183 544 122T445 25T299 -10V-10ZM300 118Q327 118 344 133T369 182T377 266Q377 319 369 352T344 400T300
416Q274 416 257 401T231 352T223 266Q223 214 231 182T256 134T300 118V118Z" />
<glyph unicode="p" horiz-adv-x="617" d="M216 530Q242 530 242 506V485Q242 479 247 479T257 483Q277 501 297 513T341 533T397 540Q453 540 497 511T567 421T593 267Q593 166 566 105T492 17T390 -10Q356 -10 325 0T262 41Q250 52 246 52T241 36V-145Q241 -165
223 -165H60Q41 -165 41 -143V504Q41 517 46 523T68 530H216V530ZM241 151Q254 133 270 122T311 111Q336 111 354 125T381 174T391 273Q391 331 382 362T355 406T311 419Q292 419 276 412T251 392T241 363V151V151Z" />
<glyph unicode="q" horiz-adv-x="616" d="M548 530Q564 530 569 524T575 504V-143Q575 -165 556 -165H393Q375 -165 375 -145V28Q375 42 370 44T357 39Q330 18 299 4T233 -10Q169 -10 122 21T49 114T23 264Q23 348 50 410T127 506T245 541Q282 541 312 531T367
501T411 457Q420 447 424 460L440 506Q444 518 450 524T465 530H548ZM375 344Q375 369 367 387T343 415T306 426Q282 426 264 410T235 359T225 265Q225 207 234 173T260 125T302 110Q325 110 342 118T375 143V344Z" />
<glyph unicode="r" horiz-adv-x="454" d="M67 0Q52 0 47 6T41 25V507Q41 530 60 530H216Q234 530 234 510V454Q234 447 240 446T251 451Q267 476 292 496T345 528T396 540Q433 540 433 520V368Q433 347 413 352Q390 358 366 360T327 363Q311 363 296 358T268 342T248
320T241 295V29Q241 0 208 0H67V0Z" />
<glyph unicode="s" horiz-adv-x="541" d="M373 378Q358 395 334 409T273 424Q247 424 228 415T209 389Q209 382 215 375T249 363L355 341Q448 322 485 275T523 170Q523 112 491 72T402 11T270 -10Q174 -10 110 22T21 99Q16 108 16 116T23 128L110 172Q123 178
129 177T141 170Q153 157 167 144T206 121T271 113Q292 114 309 117T336 129T346 149Q346 159 338 167T300 180L198 198Q122 212 79 250T35 357Q35 409 62 450T144 516T275 540Q357 540 414 511T494 444Q499 437 502 428T494 414L402 370Q393 366 386 368T373 378V378Z"
/>
<glyph unicode="t" horiz-adv-x="462" d="M318 395Q305 395 305 382V190Q305 164 321 151T375 137H418Q426 137 431 131T436 117L435 37Q435 13 406 7Q384 4 362 3T317 1T271 0Q199 0 152 34T105 133V377Q105 395 90 395H42Q18 395 18 417V511Q18 530 40 530H99Q110
530 111 542L127 690Q129 710 145 710H292Q311 710 311 688V542Q311 531 322 531H414Q436 531 436 512V417Q436 395 411 395H318Z" />
<glyph unicode="u" horiz-adv-x="601" d="M285 130Q308 130 327 142T360 171V501Q360 530 393 530H536Q562 530 562 504L558 22Q558 0 539 0H381Q363 0 363 20V64Q363 70 360 71T351 68Q317 28 276 9T185 -10Q142 -10 109 9T56 66T36 157V500Q36 530 67 530H213Q236
530 236 504V179Q236 156 249 143T285 130V130Z" />
<glyph unicode="v" horiz-adv-x="591" d="M557 530Q569 530 573 521T574 501L379 25Q369 0 342 0H248Q221 0 211 25L17 501Q13 512 18 521T36 530H205Q214 530 221 524T231 510L319 279Q325 260 334 280L419 510Q423 518 429 524T445 530H557V530Z" />
<glyph unicode="w" horiz-adv-x="832" d="M798 530Q810 530 815 521T815 501L645 18Q642 8 638 4T622 0H518Q496 0 489 22L425 232Q421 243 417 243T409 232L339 18Q336 8 331 4T315 0H208Q187 0 180 22L17 501Q13 512 18 521T36 530H191Q200 530 207 524T217
510L286 296Q288 287 292 287T301 297L366 510Q368 518 375 524T392 530H501Q509 530 516 524T526 510L589 296Q591 287 595 287T604 297L672 510Q676 518 682 524T698 530H798V530Z" />
<glyph unicode="x" horiz-adv-x="622" d="M594 43Q611 19 609 10T585 0H419Q390 0 377 20L299 134Q289 148 285 148T271 135L193 20Q180 0 151 0H46Q25 0 18 11T32 51L183 248Q191 259 191 266T182 284L28 495Q20 506 25 518T47 530H206Q223 530 231 526T247 510L312
412Q321 397 330 412L390 510Q397 521 405 525T431 530H547Q566 530 567 521T561 501L425 315Q417 304 418 297T426 279L594 43V43Z" />
<glyph unicode="y" horiz-adv-x="589" d="M102 -165Q71 -165 59 -161T46 -143V-41Q46 -35 52 -29T74 -22H145Q162 -22 176 -17T198 -5T210 12T210 31L16 501Q12 512 17 521T35 530H204Q213 530 220 524T230 510L315 270Q318 261 323 261T332 270L418 510Q422 518
428 524T444 530H556Q568 530 573 521T573 501L378 31Q352 -32 327 -70T270 -129T199 -157T102 -165V-165Z" />
<glyph unicode="z" horiz-adv-x="544" d="M45 0Q30 0 25 5T19 25V70Q19 86 22 94T40 121L253 392Q265 408 243 408H63Q50 408 46 413T41 431V510Q41 530 59 530H500Q519 530 519 511V459Q519 448 515 440T502 418L284 143Q270 124 292 124H497Q520 124 520 105V22Q520
13 514 7T495 0H45V0Z" />
<glyph unicode="{" horiz-adv-x="406" d="M116 606Q116 653 144 683T215 727T296 742H376Q391 742 391 729V649Q391 635 376 635H339Q307 635 294 627T278 607T275 582V392Q274 358 255 339T211 310T161 297Q155 296 155 294T161 291Q184 289 210 281T255 251T275
187V-5Q275 -33 288 -45T339 -58H373Q391 -58 391 -74V-147Q391 -165 373 -165H299Q258 -165 216 -151T145 -107T116 -29V168Q116 192 106 210T72 238T12 248Q0 248 0 268V321Q0 341 12 341Q68 341 92 360T116 425V606V606Z" />
<glyph unicode="|" horiz-adv-x="245" d="M80 -165Q52 -165 52 -132V821Q52 836 58 841T77 847H170Q193 847 193 828V-147Q193 -165 173 -165H80Z" />
<glyph unicode="}" horiz-adv-x="406" d="M290 606V606V425Q290 380 314 361T394 341Q406 341 406 321V268Q406 248 394 248Q357 248 334 238T301 210T290 168V-29Q290 -76 262 -106T191 -151T107 -165H33Q15 -165 15 -147V-74Q15 -58 33 -58H67Q105 -58 118 -46T131
-5V187Q133 229 151 250T196 280T245 291Q252 292 252 294T245 297Q222 300 196 309T152 338T131 392V582Q131 595 129 607T113 627T67 635H30Q15 635 15 649V729Q15 742 30 742H110Q150 742 191 728T261 683T290 606Z" />
<glyph unicode="~" horiz-adv-x="636" d="M580 373Q550 323 507 300T423 276Q392 276 367 287T319 312T274 337T226 348Q191 348 165 325T114 275Q110 270 104 270T94 276L52 344Q45 356 61 372Q103 414 141 441T229 468Q262 468 287 458T333 433T374 408T419
397Q450 397 476 416T520 462Q534 482 549 459L582 405Q587 398 586 389T580 373V373Z" />
<glyph unicode="&#xa0;" horiz-adv-x="200" />
<glyph unicode="&#xa1;" horiz-adv-x="277" d="M244 353Q244 333 226 333H53Q34 333 34 355V505Q34 530 61 530H211Q244 530 244 501V353V353ZM253 -144Q255 -154 249 -159T235 -165H46Q37 -165 32 -159T27 -142L77 239Q79 252 83 258T103 264H172Q189 264 196
258T205 236L253 -144V-144Z" />
<glyph unicode="&#xa2;" horiz-adv-x="558" d="M369 29Q369 0 338 0H271Q244 0 244 26V167Q244 196 275 196H342Q369 196 369 170V29V29ZM369 575Q369 546 338 546H271Q244 546 244 572V713Q244 742 275 742H342Q369 742 369 716V575V575ZM298 651Q370 651 420
625T499 559T536 481Q543 456 518 455L381 448Q367 447 364 462Q362 475 357 489T340 514T303 525Q279 525 261 510T233 463T223 376Q223 321 234 288T265 240T314 225Q355 225 374 247T413 304Q415 308 419 309T433 309L527 291Q541 288 536 268Q532 249 517 221T474
165T403 120T298 101Q218 101 156 135T57 231T21 374Q21 457 57 519T156 616T298 651V651Z" />
<glyph unicode="&#xa3;" horiz-adv-x="664" d="M30 0Q12 0 12 20V148Q12 163 27 163H44Q82 163 104 180T127 237Q127 249 126 269T120 332Q119 343 107 343H25Q12 343 12 357V434Q12 446 25 446H84Q97 446 96 460L90 546Q86 597 105 636T161 700T243 739T341 752Q390
752 440 737T534 687T602 595Q605 588 602 584T590 577L453 537Q436 532 430 544Q422 565 409 581T372 598Q357 598 346 591T329 570T323 536Q323 523 325 504T332 458Q334 446 346 446H458Q470 446 470 435V355Q470 343 458 343H360Q349 343 349 332Q349 304 346
282T338 243Q334 230 328 219T313 198T295 179Q288 172 290 168T300 164H380Q420 164 442 179T476 229Q482 244 501 240L624 216Q648 211 643 191Q621 99 556 50T396 0H30V0Z" />
<glyph unicode="&#xa4;" horiz-adv-x="600" d="M303 126Q235 126 179 159Q168 164 161 157L105 101Q96 92 84 103L26 161Q17 171 26 180L83 237Q90 244 84 255Q69 284 61 310T53 372Q53 406 60 435T84 492Q89 503 82 510L26 566Q17 575 26 585L85 645Q95 656 105
646L162 589Q168 583 179 588Q206 602 237 611T298 620Q366 620 426 586Q433 583 437 587L491 641Q496 646 501 641L567 572Q573 566 567 560L513 507Q510 504 513 497Q530 469 538 439T547 373Q547 340 539 307T511 247Q509 244 511 242L567 186Q573 180 568 174L502
107Q496 101 490 107L436 161Q433 164 426 161Q398 145 367 136T303 126V126ZM300 250Q335 250 363 267T407 312T423 373Q423 406 407 434T363 479T300 496Q265 496 237 479T193 434T177 373Q177 341 193 313T237 267T300 250V250Z" />
<glyph unicode="&#xa5;" horiz-adv-x="690" d="M696 742Q709 742 712 736T710 719L476 341Q469 331 468 319T466 275V29Q466 0 433 0H265Q250 0 245 6T239 25V288Q239 304 236 312T225 332L-9 714Q-16 726 -12 734T9 742H210Q225 742 231 738T244 721L367 499Q372
490 375 490T384 498L505 721Q511 734 518 738T539 742H696V742ZM616 293Q616 265 583 265H115Q100 265 95 271T89 290V343Q89 366 108 366H598Q616 366 616 346V293ZM616 123Q616 95 583 95H115Q100 95 95 101T89 120V173Q89 196 108 196H598Q616 196 616 176V123Z"
/>
<glyph unicode="&#xa6;" horiz-adv-x="245" d="M80 423Q52 423 52 456V821Q52 836 58 841T77 847H170Q193 847 193 828V441Q193 423 173 423H80ZM80 -165Q52 -165 52 -132V233Q52 248 58 253T77 259H170Q193 259 193 240V-147Q193 -165 173 -165H80Z" />
<glyph unicode="&#xa7;" horiz-adv-x="517" d="M416 227Q463 201 482 171T501 97Q501 44 474 3T394 -62T260 -85Q165 -85 105 -56T23 11Q14 27 16 33T23 41L115 85Q124 90 130 87T144 77Q161 61 185 46T255 30Q287 30 307 39T327 70Q327 85 314 97T264 123L194
149Q103 183 62 221T20 325Q20 372 41 406T101 460Q76 477 60 495T37 535T30 580Q30 629 56 667T132 729T250 752Q332 752 389 723T468 656Q477 640 475 634T468 626L376 582Q367 578 361 580T347 590Q330 607 309 622T255 637Q232 637 218 628T204 601Q204 590
213 582T247 564L317 538Q408 504 449 466T491 362Q491 316 472 283T416 227V227ZM289 283Q307 282 316 287T330 303T334 325Q334 339 323 354T264 388L227 402Q208 401 197 394T182 377T177 355Q177 337 190 327T247 299L289 283V283Z" />
<glyph unicode="&#xa8;" horiz-adv-x="431" d="M181 623Q181 610 174 605T152 599H32Q19 599 15 604T10 621V722Q10 742 26 742H165Q181 742 181 724V623ZM421 623Q421 610 414 605T392 599H272Q259 599 255 604T250 621V722Q250 742 266 742H405Q421 742 421 724V623Z" />
<glyph unicode="&#xa9;" horiz-adv-x="830" d="M415 -10Q336 -10 267 19T146 101T64 222T34 371Q34 450 63 519T145 640T267 722T415 752Q494 752 563 723T684 641T766 519T796 371Q796 292 767 223T685 101T563 20T415 -10V-10ZM415 91Q476 91 525 110T610 167T665
255T684 371Q684 434 665 486T611 575T526 632T415 652Q353 652 303 632T218 575T165 486T146 371Q146 307 164 256T218 167T303 111T415 91V91ZM418 584Q473 584 511 564T572 513T601 453Q604 443 601 439T587 433L482 428Q472 427 469 439Q467 453 459 470T422
487Q394 487 378 461T361 373Q361 309 379 283T431 257Q463 257 478 274T507 317Q510 323 522 321L594 307Q605 306 601 290Q598 275 587 254T554 211T499 175T418 161Q357 161 309 187T234 261T206 371Q206 435 234 482T310 557T418 584V584Z" />
<glyph unicode="&#xaa;" horiz-adv-x="386" d="M180 752Q269 751 300 724T332 649V475Q332 462 334 453T339 432Q343 421 333 418T307 414H234Q224 414 222 418T217 430L216 434Q214 445 198 434Q176 421 159 415T116 408Q64 408 36 434T8 504Q8 554 53 585T189
621L202 622Q214 622 214 633V641Q214 677 177 677Q164 677 150 671T128 648Q124 639 111 641L29 657Q25 659 24 666T25 677Q43 714 75 733T180 752V752ZM129 512Q129 499 138 491T167 482Q189 482 204 494Q209 498 211 502T214 514V549Q214 562 202 561L188 559Q170
558 150 546T129 512V512Z" />
<glyph unicode="&#xab;" horiz-adv-x="513" d="M462 73Q466 60 446 60H373Q362 60 357 70L265 235Q252 256 264 278L357 453Q361 460 364 461T374 463H449Q456 463 460 459T461 447L404 270Q400 257 404 244L462 73ZM254 73Q258 60 238 60H165Q154 60 149 70L57
235Q44 256 56 278L149 453Q153 460 156 461T166 463H241Q248 463 252 459T253 447L196 270Q192 257 196 244L254 73Z" />
<glyph unicode="&#xac;" horiz-adv-x="600" d="M562 331Q562 303 529 303H66Q51 303 46 309T40 328V421Q40 444 59 444H544Q562 444 562 424V331ZM562 167Q562 141 532 141H426Q402 141 402 164V373Q402 393 419 393H546Q562 393 562 375V167Z" />
<glyph unicode="&#xad;" horiz-adv-x="380" d="M339 221Q339 193 306 193H67Q52 193 47 199T41 218V310Q41 333 60 333H321Q339 333 339 313V221Z" />
<glyph unicode="&#xae;" horiz-adv-x="545" d="M273 275Q207 275 153 307T66 393T34 513Q34 579 66 633T152 719T273 752Q339 752 393 720T479 633T511 513Q511 447 479 393T393 307T273 275V275ZM273 346Q322 346 357 366T413 424T433 513Q433 564 413 601T358
660T273 681Q224 681 188 660T132 602T112 513Q112 462 131 425T187 367T273 346V346ZM382 404Q384 400 382 397T376 394H314Q308 394 305 401L276 487Q275 489 273 490T266 492H248Q244 492 244 488V403Q244 394 233 394H180Q172 394 172 402V623Q172 630 178
630H287Q333 630 359 613T385 564Q385 542 373 527T343 503Q341 502 341 497L382 404V404ZM284 539Q297 539 303 545T310 561Q310 572 302 577T283 583H251Q247 583 246 582T244 577V546Q244 539 249 539H284V539Z" />
<glyph unicode="&#xaf;" horiz-adv-x="431" d="M421 643Q421 619 392 619H32Q19 619 15 624T10 641V722Q10 742 26 742H405Q421 742 421 724V643Z" />
<glyph unicode="&#xb0;" horiz-adv-x="464" d="M414 675Q414 622 390 581T325 516T232 493Q180 493 139 516T74 580T50 675Q50 728 73 769T138 833T232 857Q284 857 325 834T390 769T414 675V675ZM302 674Q302 706 283 727T230 748Q198 748 178 727T159 674Q160
641 179 620T231 599Q263 599 282 620T302 674V674Z" />
<glyph unicode="&#xb1;" horiz-adv-x="600" d="M562 43Q562 15 529 15H66Q51 15 46 21T40 40V133Q40 156 59 156H544Q562 156 562 136V43ZM562 426Q562 398 529 398H66Q51 398 46 404T40 423V516Q40 539 59 539H544Q562 539 562 519V426ZM259 208Q231 208 231
241V704Q231 719 237 724T256 730H349Q372 730 372 711V226Q372 208 352 208H259Z" />
<glyph unicode="&#xb2;" horiz-adv-x="452" d="M179 590Q223 626 244 646T271 679T278 707Q278 721 272 732T253 749T223 756Q199 756 181 741T142 687Q137 677 122 684L47 721Q40 725 39 732T41 746Q76 803 121 830T231 857Q288 857 329 839T393 787T416 709Q416
685 408 664T382 623T333 582L223 508Q219 505 219 503T227 500H406Q421 500 421 488V398Q421 384 405 384H53Q44 384 40 387T36 400V462Q36 467 41 474T73 503L179 590Z" />
<glyph unicode="&#xb3;" horiz-adv-x="467" d="M64 773Q59 780 64 789Q87 819 135 838T239 857Q328 857 377 823T427 732Q427 706 410 679T356 641Q349 638 349 634T356 627Q396 614 418 586T441 523Q441 450 389 414T231 378Q173 378 122 402T46 463Q42 469 43
475T51 486L114 530Q125 537 131 531Q160 502 182 489T239 476Q268 476 284 488T301 520Q301 535 293 546T270 565T234 572L181 573Q168 573 168 584V660Q168 669 181 671L224 673Q253 675 270 688T288 723Q288 739 273 750T236 761Q209 761 188 751T141 717Q136
712 133 712T125 716L64 773V773Z" />
<glyph unicode="&#xb4;" horiz-adv-x="320" d="M308 658Q316 633 289 626L56 570Q43 567 37 570T27 583L12 626Q6 644 20 650L260 748Q274 754 281 736L308 658Z" />
<glyph unicode="&#xb5;" horiz-adv-x="601" d="M285 130Q308 130 327 142T360 171V501Q360 530 393 530H536Q562 530 562 504L558 22Q558 0 539 0H381Q363 0 363 20V64Q363 70 360 71T351 68Q329 41 304 25T254 0Q243 -4 240 -8T236 -22V-136Q236 -152 228 -158T203
-165H63Q36 -165 36 -140V500Q36 530 67 530H213Q236 530 236 504V179Q236 164 242 153T259 136T285 130V130Z" />
<glyph unicode="&#xb6;" horiz-adv-x="631" d="M542 633Q529 633 529 619V-67Q529 -74 526 -79T514 -85H430Q411 -85 411 -67V621Q411 633 397 633H358Q345 633 345 619V-68Q345 -85 329 -85H243Q227 -85 227 -68V299Q227 308 216 309Q167 315 122 339T49 409T21
525Q21 587 49 636T131 713T263 742H580Q595 742 595 729V646Q595 633 580 633H542Z" />
<glyph unicode="&#xb7;" horiz-adv-x="279" d="M230 310Q230 284 201 284H68Q44 284 44 306V443Q44 463 61 463H214Q230 463 230 445V310Z" />
<glyph unicode="&#xb8;" horiz-adv-x="287" d="M277 -137Q277 -164 259 -183T210 -214T144 -225Q111 -225 78 -220T17 -200Q7 -193 11 -184L28 -143Q31 -135 40 -138Q57 -147 78 -154T119 -161Q140 -161 153 -154T166 -134Q166 -116 147 -106T75 -95Q68 -95 65
-93T65 -83L103 5H184L165 -44Q161 -53 171 -53Q210 -53 233 -66T267 -98T277 -137V-137Z" />
<glyph unicode="&#xb9;" horiz-adv-x="367" d="M312 483Q326 483 326 471V394Q326 380 310 380H43Q28 380 28 393V471Q28 483 42 483H98Q105 483 105 489V699Q105 710 95 707L44 696Q27 691 27 710V763Q27 771 29 774T39 781L152 838Q162 843 168 845T183 847H237Q248
847 248 834V491Q248 483 255 483H312V483Z" />
<glyph unicode="&#xba;" horiz-adv-x="391" d="M195 752Q248 752 287 730T348 668T370 578Q370 529 348 491T286 430T195 408Q144 408 105 430T43 490T21 578Q21 630 44 669T106 730T195 752V752ZM195 674Q170 674 159 652T147 581Q147 532 158 510T195 488Q221
488 232 510T244 581Q244 630 233 652T195 674V674Z" />
<glyph unicode="&#xbb;" horiz-adv-x="513" d="M109 244Q113 257 109 270L52 447Q49 455 53 459T64 463H139Q145 463 148 462T156 453L249 278Q261 256 248 235L156 70Q151 60 140 60H67Q47 60 51 73L109 244V244ZM317 244Q321 257 317 270L260 447Q257 455 261
459T272 463H347Q353 463 356 462T364 453L457 278Q469 256 456 235L364 70Q359 60 348 60H275Q255 60 259 73L317 244V244Z" />
<glyph unicode="&#xbc;" horiz-adv-x="973" d="M308 379Q322 379 322 367V290Q322 276 306 276H39Q24 276 24 289V367Q24 379 38 379H94Q101 379 101 385V595Q101 606 91 603L40 592Q23 587 23 606V659Q23 667 25 670T35 677L148 734Q158 739 164 741T179 743H233Q244
743 244 730V387Q244 379 251 379H308V379ZM316 8Q308 -4 287 -4L235 -3Q219 -3 217 8T221 31L690 737Q697 747 703 748T718 750H784Q792 750 796 746T794 730L316 8ZM726 451Q734 461 739 464T758 467H861Q873 467 873 454V203Q873 195 880 195H927Q940 195 940
183V114Q940 100 925 100H881Q873 100 873 92V18Q873 0 852 0H745Q728 0 728 16V94Q728 100 720 100H540Q525 100 525 114V179Q525 187 530 195T545 217L726 451V451ZM725 195Q730 195 730 199V321Q730 330 728 330T721 323L635 203Q630 195 640 195H725Z" />
<glyph unicode="&#xbd;" horiz-adv-x="1020" d="M318 379Q332 379 332 367V290Q332 276 316 276H49Q34 276 34 289V367Q34 379 48 379H104Q111 379 111 385V595Q111 606 101 603L50 592Q33 587 33 606V659Q33 667 35 670T45 677L158 734Q168 739 174 741T189 743H243Q254
743 254 730V387Q254 379 261 379H318V379ZM301 8Q293 -4 272 -4L220 -3Q204 -3 202 8T206 31L675 737Q682 747 688 748T703 750H769Q777 750 781 746T779 730L301 8ZM735 206Q779 242 800 262T827 295T834 323Q834 337 828 348T809 365T779 372Q755 372 737 357T698
303Q693 293 678 300L603 337Q596 341 595 348T597 362Q632 419 677 446T787 473Q844 473 885 455T949 403T972 325Q972 301 964 280T938 239T889 198L779 124Q775 121 775 119T783 116H962Q977 116 977 104V14Q977 0 961 0H609Q600 0 596 3T592 16V78Q592 83 597
90T629 119L735 206Z" />
<glyph unicode="&#xbe;" horiz-adv-x="1063" d="M50 668Q45 675 50 684Q73 714 121 733T225 752Q314 752 363 718T413 627Q413 601 396 574T342 536Q335 533 335 529T342 522Q382 509 404 481T427 418Q427 345 375 309T217 273Q159 273 108 297T32 358Q28 364
29 370T37 381L100 425Q111 432 117 426Q146 397 168 384T225 371Q254 371 270 383T287 415Q287 430 279 441T256 460T220 467L167 468Q154 468 154 479V555Q154 564 167 566L210 568Q239 570 256 583T274 618Q274 634 259 645T222 656Q195 656 174 646T127 612Q122
607 119 607T111 611L50 668V668ZM371 8Q363 -4 342 -4L290 -3Q274 -3 272 8T276 31L745 737Q752 747 758 748T773 750H839Q847 750 851 746T849 730L371 8ZM804 451Q812 461 817 464T836 467H939Q951 467 951 454V203Q951 195 958 195H1005Q1018 195 1018 183V114Q1018
100 1003 100H959Q951 100 951 92V18Q951 0 930 0H823Q806 0 806 16V94Q806 100 798 100H618Q603 100 603 114V179Q603 187 608 195T623 217L804 451V451ZM803 195Q808 195 808 199V321Q808 330 806 330T799 323L713 203Q708 195 718 195H803Z" />
<glyph unicode="&#xbf;" horiz-adv-x="544" d="M187 501Q187 530 220 530H371Q386 530 391 524T397 505V355Q397 333 378 333H205Q187 333 187 353V501ZM538 16Q548 14 549 6T548 -11Q516 -91 449 -133T280 -175Q193 -175 136 -151T50 -88T22 -3Q22 34 36 60T71
105T117 139T163 170T199 203T213 247Q213 257 220 264T238 271H343Q369 271 369 242Q369 208 358 182T330 137T293 101T257 71T228 41T217 8Q217 -12 236 -26T282 -40Q303 -40 322 -32T358 -7T384 32Q389 42 394 43T410 43L538 16Z" />
<glyph unicode="&#xc0;" horiz-adv-x="799" d="M43 0Q32 0 27 10T28 37L270 719Q275 731 281 736T300 742H497Q523 742 533 715L773 34Q777 24 774 12T759 0H563Q546 0 541 17L502 132Q500 137 498 140T487 144H275Q263 144 260 133L219 15Q217 9 212 5T195 0H43V0ZM437
314Q452 314 446 334L386 505Q384 510 380 510T374 505L313 335Q305 314 323 314H437ZM276 951Q283 969 297 963L536 865Q550 859 544 841L529 798Q525 788 519 785T500 785L267 841Q240 848 248 873L276 951V951Z" />
<glyph unicode="&#xc1;" horiz-adv-x="799" d="M43 0Q32 0 27 10T28 37L270 719Q275 731 281 736T300 742H497Q523 742 533 715L773 34Q777 24 774 12T759 0H563Q546 0 541 17L502 132Q500 137 498 140T487 144H275Q263 144 260 133L219 15Q217 9 212 5T195 0H43V0ZM437
314Q452 314 446 334L386 505Q384 510 380 510T374 505L313 335Q305 314 323 314H437ZM543 870Q551 845 524 838L291 782Q278 779 272 782T262 795L247 838Q241 856 255 862L495 960Q509 966 516 948L543 870Z" />
<glyph unicode="&#xc2;" horiz-adv-x="799" d="M43 0Q32 0 27 10T28 37L270 719Q275 731 281 736T300 742H497Q523 742 533 715L773 34Q777 24 774 12T759 0H563Q546 0 541 17L502 132Q500 137 498 140T487 144H275Q263 144 260 133L219 15Q217 9 212 5T195 0H43V0ZM437
314Q452 314 446 334L386 505Q384 510 380 510T374 505L313 335Q305 314 323 314H437ZM410 870Q400 884 395 884T376 870L330 816Q323 809 319 808T304 807H205Q196 807 196 812T202 825L314 949Q321 957 329 960T351 964H446Q457 964 463 960T474 951L585 825Q602
807 583 807H478Q469 807 463 808T451 816L410 870Z" />
<glyph unicode="&#xc3;" horiz-adv-x="799" d="M43 0Q32 0 27 10T28 37L270 719Q275 731 281 736T300 742H497Q523 742 533 715L773 34Q777 24 774 12T759 0H563Q546 0 541 17L502 132Q500 137 498 140T487 144H275Q263 144 260 133L219 15Q217 9 212 5T195 0H43V0ZM437
314Q452 314 446 334L386 505Q384 510 380 510T374 505L313 335Q305 314 323 314H437ZM579 851Q563 840 537 831T479 821Q450 821 424 829T372 844T317 852Q296 852 281 847T246 827Q238 821 233 822T223 835L206 889Q204 897 204 903T214 920Q233 936 255 948T312
961Q344 961 373 953T428 936T478 927Q502 927 522 936T555 955Q563 960 570 959T579 946L593 881Q597 864 579 851V851Z" />
<glyph unicode="&#xc4;" horiz-adv-x="799" d="M43 0Q32 0 27 10T28 37L270 719Q275 731 281 736T300 742H497Q523 742 533 715L773 34Q777 24 774 12T759 0H563Q546 0 541 17L502 132Q500 137 498 140T487 144H275Q263 144 260 133L219 15Q217 9 212 5T195 0H43V0ZM437
314Q452 314 446 334L386 505Q384 510 380 510T374 505L313 335Q305 314 323 314H437ZM360 835Q360 822 353 817T331 811H211Q198 811 194 816T189 833V934Q189 954 205 954H344Q360 954 360 936V835ZM600 835Q600 822 593 817T571 811H451Q438 811 434 816T429
833V934Q429 954 445 954H584Q600 954 600 936V835Z" />
<glyph unicode="&#xc5;" horiz-adv-x="799" d="M43 0Q32 0 27 10T28 37L270 719Q275 731 281 736T300 742H497Q523 742 533 715L773 34Q777 24 774 12T759 0H563Q546 0 541 17L502 132Q500 137 498 140T487 144H275Q263 144 260 133L219 15Q217 9 212 5T195 0H43V0ZM437
314Q452 314 446 334L386 505Q384 510 380 510T374 505L313 335Q305 314 323 314H437ZM511 843Q511 794 477 760T394 726Q345 726 311 760T277 845Q277 877 293 902T335 943T394 958Q427 958 453 943T495 901T511 843V843ZM441 842Q441 862 427 875T393 889Q374
889 359 876T344 842Q344 823 359 808T393 793Q413 793 427 808T441 842V842Z" />
<glyph unicode="&#xc6;" horiz-adv-x="1127" d="M1072 164Q1094 164 1094 145V22Q1094 13 1089 7T1070 0H535Q508 0 508 25V130Q508 144 495 144H294Q282 144 277 133L218 15Q215 9 209 5T192 0H40Q29 0 26 10T31 37L385 719Q391 731 398 736T418 742H1067Q1085
742 1085 721L1084 605Q1084 578 1058 578H758Q735 578 735 559V474Q735 453 753 453H933Q954 453 954 433V309Q954 302 950 297T936 292H751Q735 292 735 278V178Q735 164 747 164H1072V164ZM489 314Q508 314 508 334V535Q508 558 494 559T468 537L366 335Q353
314 372 314H489V314Z" />
<glyph unicode="&#xc7;" horiz-adv-x="737" d="M385 752Q448 752 501 735T596 687T664 614T701 522Q706 501 703 495T688 487L513 476Q502 476 499 480T494 495Q486 539 464 568T391 598Q335 598 302 549T268 377Q268 253 298 204T390 154Q440 154 478 179T543
271Q548 283 571 279L696 254Q701 253 707 247T710 221Q707 205 694 177T657 117T595 56T505 9T383 -10Q276 -10 197 40T74 179T30 381Q30 494 73 577T197 706T385 752V752ZM521 -137Q521 -164 503 -183T454 -214T388 -225Q355 -225 322 -220T261 -200Q251 -193
255 -184L272 -143Q275 -135 284 -138Q301 -147 322 -154T363 -161Q384 -161 397 -154T410 -134Q410 -116 391 -106T319 -95Q312 -95 309 -93T309 -83L347 5H428L409 -44Q405 -53 415 -53Q454 -53 477 -66T511 -98T521 -137V-137Z" />
<glyph unicode="&#xc8;" horiz-adv-x="671" d="M52 719Q52 742 71 742H611Q629 742 629 721L628 605Q628 578 602 578H302Q279 578 279 559V474Q279 453 297 453H477Q498 453 498 433V309Q498 302 494 297T480 292H295Q279 292 279 278V178Q279 164 291 164H616Q638
164 638 145V22Q638 13 633 7T614 0H79Q52 0 52 25V719V719ZM217 951Q224 969 238 963L477 865Q491 859 485 841L470 798Q466 788 460 785T441 785L208 841Q181 848 189 873L217 951V951Z" />
<glyph unicode="&#xc9;" horiz-adv-x="671" d="M52 719Q52 742 71 742H611Q629 742 629 721L628 605Q628 578 602 578H302Q279 578 279 559V474Q279 453 297 453H477Q498 453 498 433V309Q498 302 494 297T480 292H295Q279 292 279 278V178Q279 164 291 164H616Q638
164 638 145V22Q638 13 633 7T614 0H79Q52 0 52 25V719V719ZM484 870Q492 845 465 838L232 782Q219 779 213 782T203 795L188 838Q182 856 196 862L436 960Q450 966 457 948L484 870Z" />
<glyph unicode="&#xca;" horiz-adv-x="671" d="M52 719Q52 742 71 742H611Q629 742 629 721L628 605Q628 578 602 578H302Q279 578 279 559V474Q279 453 297 453H477Q498 453 498 433V309Q498 302 494 297T480 292H295Q279 292 279 278V178Q279 164 291 164H616Q638
164 638 145V22Q638 13 633 7T614 0H79Q52 0 52 25V719V719ZM351 870Q341 884 336 884T317 870L271 816Q264 809 260 808T245 807H146Q137 807 137 812T143 825L255 949Q262 957 270 960T292 964H387Q398 964 404 960T415 951L526 825Q543 807 524 807H419Q410
807 404 808T392 816L351 870Z" />
<glyph unicode="&#xcb;" horiz-adv-x="671" d="M52 719Q52 742 71 742H611Q629 742 629 721L628 605Q628 578 602 578H302Q279 578 279 559V474Q279 453 297 453H477Q498 453 498 433V309Q498 302 494 297T480 292H295Q279 292 279 278V178Q279 164 291 164H616Q638
164 638 145V22Q638 13 633 7T614 0H79Q52 0 52 25V719V719ZM301 835Q301 822 294 817T272 811H152Q139 811 135 816T130 833V934Q130 954 146 954H285Q301 954 301 936V835ZM541 835Q541 822 534 817T512 811H392Q379 811 375 816T370 833V934Q370 954 386 954H525Q541
954 541 936V835Z" />
<glyph unicode="&#xcc;" horiz-adv-x="331" d="M261 742Q279 742 279 721V29Q279 13 271 7T246 0H79Q63 0 58 6T52 25V719Q52 742 71 742H261ZM47 951Q54 969 68 963L307 865Q321 859 315 841L300 798Q296 788 290 785T271 785L38 841Q11 848 19 873L47 951V951Z" />
<glyph unicode="&#xcd;" horiz-adv-x="331" d="M261 742Q279 742 279 721V29Q279 13 271 7T246 0H79Q63 0 58 6T52 25V719Q52 742 71 742H261ZM314 870Q322 845 295 838L62 782Q49 779 43 782T33 795L18 838Q12 856 26 862L266 960Q280 966 287 948L314 870Z" />
<glyph unicode="&#xce;" horiz-adv-x="331" d="M261 742Q279 742 279 721V29Q279 13 271 7T246 0H79Q63 0 58 6T52 25V719Q52 742 71 742H261ZM181 870Q171 884 166 884T147 870L101 816Q94 809 90 808T75 807H-24Q-33 807 -33 812T-27 825L85 949Q92 957 100
960T122 964H217Q228 964 234 960T245 951L356 825Q373 807 354 807H249Q240 807 234 808T222 816L181 870Z" />
<glyph unicode="&#xcf;" horiz-adv-x="331" d="M261 742Q279 742 279 721V29Q279 13 271 7T246 0H79Q63 0 58 6T52 25V719Q52 742 71 742H261ZM131 835Q131 822 124 817T102 811H-18Q-31 811 -35 816T-40 833V934Q-40 954 -24 954H115Q131 954 131 936V835ZM371
835Q371 822 364 817T342 811H222Q209 811 205 816T200 833V934Q200 954 216 954H355Q371 954 371 936V835Z" />
<glyph unicode="&#xd0;" horiz-adv-x="791" d="M432 321Q432 293 399 293H50Q35 293 30 299T24 318V411Q24 434 43 434H414Q432 434 432 414V321ZM99 742Q124 742 160 742T235 742T308 742T365 741Q499 737 586 689T717 560T760 372Q760 265 716 181T584 48T364
0H101Q72 0 72 30V717Q72 731 78 736T99 742V742ZM309 585Q299 585 299 571V172Q299 157 313 157H320Q383 157 428 178T497 247T522 374Q522 444 502 490T440 561T333 585H309V585Z" />
<glyph unicode="&#xd1;" horiz-adv-x="761" d="M694 742Q709 742 709 725V18Q709 10 703 5T686 0H549Q541 0 536 2T522 15L247 388Q243 393 240 392T237 386V22Q238 0 213 0H77Q52 0 52 20V719Q52 742 74 742H237Q250 742 256 739T271 724L511 390Q518 381 522
381T527 394V721Q527 742 549 742H694ZM565 851Q549 840 523 831T465 821Q436 821 410 829T358 844T303 852Q282 852 267 847T232 827Q224 821 219 822T209 835L192 889Q190 897 190 903T200 920Q219 936 241 948T298 961Q330 961 359 953T414 936T464 927Q488
927 508 936T541 955Q549 960 556 959T565 946L579 881Q583 864 565 851V851Z" />
<glyph unicode="&#xd2;" horiz-adv-x="780" d="M391 -10Q281 -10 200 36T75 168T31 369Q31 485 76 571T202 704T391 752Q499 752 579 705T704 571T749 369Q749 254 705 169T581 37T391 -10V-10ZM391 146Q456 146 483 196T511 366Q511 490 483 544T391 598Q326
598 298 544T269 366Q269 246 296 196T391 146V146ZM271 951Q278 969 292 963L531 865Q545 859 539 841L524 798Q520 788 514 785T495 785L262 841Q235 848 243 873L271 951V951Z" />
<glyph unicode="&#xd3;" horiz-adv-x="780" d="M391 -10Q281 -10 200 36T75 168T31 369Q31 485 76 571T202 704T391 752Q499 752 579 705T704 571T749 369Q749 254 705 169T581 37T391 -10V-10ZM391 146Q456 146 483 196T511 366Q511 490 483 544T391 598Q326
598 298 544T269 366Q269 246 296 196T391 146V146ZM538 870Q546 845 519 838L286 782Q273 779 267 782T257 795L242 838Q236 856 250 862L490 960Q504 966 511 948L538 870Z" />
<glyph unicode="&#xd4;" horiz-adv-x="780" d="M391 -10Q281 -10 200 36T75 168T31 369Q31 485 76 571T202 704T391 752Q499 752 579 705T704 571T749 369Q749 254 705 169T581 37T391 -10V-10ZM391 146Q456 146 483 196T511 366Q511 490 483 544T391 598Q326
598 298 544T269 366Q269 246 296 196T391 146V146ZM405 870Q395 884 390 884T371 870L325 816Q318 809 314 808T299 807H200Q191 807 191 812T197 825L309 949Q316 957 324 960T346 964H441Q452 964 458 960T469 951L580 825Q597 807 578 807H473Q464 807 458
808T446 816L405 870Z" />
<glyph unicode="&#xd5;" horiz-adv-x="780" d="M391 -10Q281 -10 200 36T75 168T31 369Q31 485 76 571T202 704T391 752Q499 752 579 705T704 571T749 369Q749 254 705 169T581 37T391 -10V-10ZM391 146Q456 146 483 196T511 366Q511 490 483 544T391 598Q326
598 298 544T269 366Q269 246 296 196T391 146V146ZM574 851Q558 840 532 831T474 821Q445 821 419 829T367 844T312 852Q291 852 276 847T241 827Q233 821 228 822T218 835L201 889Q199 897 199 903T209 920Q228 936 250 948T307 961Q339 961 368 953T423 936T473
927Q497 927 517 936T550 955Q558 960 565 959T574 946L588 881Q592 864 574 851V851Z" />
<glyph unicode="&#xd6;" horiz-adv-x="780" d="M391 -10Q281 -10 200 36T75 168T31 369Q31 485 76 571T202 704T391 752Q499 752 579 705T704 571T749 369Q749 254 705 169T581 37T391 -10V-10ZM391 146Q456 146 483 196T511 366Q511 490 483 544T391 598Q326
598 298 544T269 366Q269 246 296 196T391 146V146ZM355 835Q355 822 348 817T326 811H206Q193 811 189 816T184 833V934Q184 954 200 954H339Q355 954 355 936V835ZM595 835Q595 822 588 817T566 811H446Q433 811 429 816T424 833V934Q424 954 440 954H579Q595
954 595 936V835Z" />
<glyph unicode="&#xd7;" horiz-adv-x="600" d="M476 138Q456 118 433 141L63 511Q53 522 53 530T63 547L128 613Q145 630 158 616L544 230Q549 225 549 218T542 204L476 138ZM66 198Q45 217 69 241L439 611Q450 622 458 622T475 612L541 546Q556 530 544 516L158
131Q146 119 131 132L66 198Z" />
<glyph unicode="&#xd8;" horiz-adv-x="786" d="M776 686Q790 672 775 659L699 585Q725 541 738 487T752 369Q752 254 708 169T584 37T394 -10Q325 -10 267 9T164 63L107 7Q96 -4 86 -4T64 7L25 47Q5 68 21 84L88 150Q62 194 48 249T34 369Q34 485 79 571T205 704T394
752Q464 752 522 732T626 674L691 737Q709 755 722 742L776 686V686ZM272 366Q272 357 272 348T273 329L488 539Q461 598 394 598Q329 598 301 544T272 366V366ZM514 366Q514 376 514 385T513 404L300 195Q327 146 394 146Q459 146 486 196T514 366V366Z" />
<glyph unicode="&#xd9;" horiz-adv-x="728" d="M684 293Q684 178 644 112T532 18T364 -10Q244 -10 174 27T74 136T44 313V719Q44 742 63 742H253Q271 742 271 721V289Q271 213 300 181T381 149Q412 149 438 161T481 205T497 292V719Q497 742 516 742H666Q684 742
684 721V293V293ZM262 951Q269 969 283 963L522 865Q536 859 530 841L515 798Q511 788 505 785T486 785L253 841Q226 848 234 873L262 951V951Z" />
<glyph unicode="&#xda;" horiz-adv-x="728" d="M684 293Q684 178 644 112T532 18T364 -10Q244 -10 174 27T74 136T44 313V719Q44 742 63 742H253Q271 742 271 721V289Q271 213 300 181T381 149Q412 149 438 161T481 205T497 292V719Q497 742 516 742H666Q684 742
684 721V293V293ZM529 870Q537 845 510 838L277 782Q264 779 258 782T248 795L233 838Q227 856 241 862L481 960Q495 966 502 948L529 870Z" />
<glyph unicode="&#xdb;" horiz-adv-x="728" d="M684 293Q684 178 644 112T532 18T364 -10Q244 -10 174 27T74 136T44 313V719Q44 742 63 742H253Q271 742 271 721V289Q271 213 300 181T381 149Q412 149 438 161T481 205T497 292V719Q497 742 516 742H666Q684 742
684 721V293V293ZM396 870Q386 884 381 884T362 870L316 816Q309 809 305 808T290 807H191Q182 807 182 812T188 825L300 949Q307 957 315 960T337 964H432Q443 964 449 960T460 951L571 825Q588 807 569 807H464Q455 807 449 808T437 816L396 870Z" />
<glyph unicode="&#xdc;" horiz-adv-x="728" d="M684 293Q684 178 644 112T532 18T364 -10Q244 -10 174 27T74 136T44 313V719Q44 742 63 742H253Q271 742 271 721V289Q271 213 300 181T381 149Q412 149 438 161T481 205T497 292V719Q497 742 516 742H666Q684 742
684 721V293V293ZM346 835Q346 822 339 817T317 811H197Q184 811 180 816T175 833V934Q175 954 191 954H330Q346 954 346 936V835ZM586 835Q586 822 579 817T557 811H437Q424 811 420 816T415 833V934Q415 954 431 954H570Q586 954 586 936V835Z" />
<glyph unicode="&#xdd;" horiz-adv-x="774" d="M733 742Q746 742 749 736T747 719L513 341Q506 331 505 319T503 275V29Q503 0 470 0H302Q287 0 282 6T276 25V288Q276 304 273 312T262 332L28 714Q21 726 25 734T46 742H247Q262 742 268 738T281 721L404 499Q409
490 412 490T421 498L542 721Q548 734 555 738T576 742H733V742ZM551 870Q559 845 532 838L299 782Q286 779 280 782T270 795L255 838Q249 856 263 862L503 960Q517 966 524 948L551 870Z" />
<glyph unicode="&#xde;" horiz-adv-x="744" d="M716 372Q716 301 681 249T585 170T441 142H291Q279 142 279 131V29Q279 0 246 0H78Q63 0 58 6T52 25V719Q52 742 71 742H261Q279 742 279 721V620Q279 608 289 608H415Q497 608 565 582T675 504T716 372V372ZM484
375Q484 409 460 428T401 448H302Q279 448 279 427V324Q279 302 296 302H407Q443 302 463 323T484 375V375Z" />
<glyph unicode="&#xdf;" horiz-adv-x="676" d="M347 742Q420 742 472 724T553 670T582 581Q582 546 568 519T523 469T439 425Q437 424 436 422T434 418Q434 416 435 414T441 410Q483 391 522 372T591 326T640 265T658 179Q658 117 630 75T550 12T427 -10Q385 -10
356 -3T306 16Q292 24 299 38L340 127Q348 141 361 133Q371 127 386 120T423 113Q446 113 463 123T481 158Q481 173 473 182T448 201T404 221Q373 235 348 255T308 304T293 368Q293 408 309 435T345 482Q360 497 373 510T394 538T403 568Q403 588 388 602T340 617Q300
617 281 594T261 535V22Q267 0 246 0H83Q65 0 65 20V351Q65 361 57 361H31Q9 361 9 380V474Q9 483 14 489T33 496H51Q61 496 63 501T65 514Q67 556 81 596T127 670T213 722T347 742V742Z" />
<glyph unicode="&#xe0;" horiz-adv-x="573" d="M313 42Q286 20 251 5T168 -10Q93 -10 51 32T8 136Q8 195 45 239T152 307T315 332H322Q326 332 331 334T337 346V363Q337 391 323 406T278 421Q257 421 235 412T200 374Q196 366 192 364T173 363L42 389Q35 391 32
396T35 421Q58 485 123 512T287 540Q380 540 432 519T505 461T527 375V27Q527 12 523 6T504 0H367Q354 0 349 10T341 35L340 42Q337 62 313 42V42ZM337 224Q337 242 322 242H318Q306 242 287 238T248 224T216 199T202 163Q202 142 217 129T259 116Q279 116 292
122T314 135Q323 143 330 151T337 171V224V224ZM168 739Q175 757 189 751L428 653Q442 647 436 629L421 586Q417 576 411 573T392 573L159 629Q132 636 140 661L168 739V739Z" />
<glyph unicode="&#xe1;" horiz-adv-x="573" d="M313 42Q286 20 251 5T168 -10Q93 -10 51 32T8 136Q8 195 45 239T152 307T315 332H322Q326 332 331 334T337 346V363Q337 391 323 406T278 421Q257 421 235 412T200 374Q196 366 192 364T173 363L42 389Q35 391 32
396T35 421Q58 485 123 512T287 540Q380 540 432 519T505 461T527 375V27Q527 12 523 6T504 0H367Q354 0 349 10T341 35L340 42Q337 62 313 42V42ZM337 224Q337 242 322 242H318Q306 242 287 238T248 224T216 199T202 163Q202 142 217 129T259 116Q279 116 292
122T314 135Q323 143 330 151T337 171V224V224ZM435 658Q443 633 416 626L183 570Q170 567 164 570T154 583L139 626Q133 644 147 650L387 748Q401 754 408 736L435 658Z" />
<glyph unicode="&#xe2;" horiz-adv-x="573" d="M313 42Q286 20 251 5T168 -10Q93 -10 51 32T8 136Q8 195 45 239T152 307T315 332H322Q326 332 331 334T337 346V363Q337 391 323 406T278 421Q257 421 235 412T200 374Q196 366 192 364T173 363L42 389Q35 391 32
396T35 421Q58 485 123 512T287 540Q380 540 432 519T505 461T527 375V27Q527 12 523 6T504 0H367Q354 0 349 10T341 35L340 42Q337 62 313 42V42ZM337 224Q337 242 322 242H318Q306 242 287 238T248 224T216 199T202 163Q202 142 217 129T259 116Q279 116 292
122T314 135Q323 143 330 151T337 171V224V224ZM302 658Q292 672 287 672T268 658L222 604Q215 597 211 596T196 595H97Q88 595 88 600T94 613L206 737Q213 745 221 748T243 752H338Q349 752 355 748T366 739L477 613Q494 595 475 595H370Q361 595 355 596T343
604L302 658Z" />
<glyph unicode="&#xe3;" horiz-adv-x="573" d="M313 42Q286 20 251 5T168 -10Q93 -10 51 32T8 136Q8 195 45 239T152 307T315 332H322Q326 332 331 334T337 346V363Q337 391 323 406T278 421Q257 421 235 412T200 374Q196 366 192 364T173 363L42 389Q35 391 32
396T35 421Q58 485 123 512T287 540Q380 540 432 519T505 461T527 375V27Q527 12 523 6T504 0H367Q354 0 349 10T341 35L340 42Q337 62 313 42V42ZM337 224Q337 242 322 242H318Q306 242 287 238T248 224T216 199T202 163Q202 142 217 129T259 116Q279 116 292
122T314 135Q323 143 330 151T337 171V224V224ZM471 639Q455 628 429 619T371 609Q342 609 316 617T264 632T209 640Q188 640 173 635T138 615Q130 609 125 610T115 623L98 677Q96 685 96 691T106 708Q125 724 147 736T204 749Q236 749 265 741T320 724T370 715Q394
715 414 724T447 743Q455 748 462 747T471 734L485 669Q489 652 471 639V639Z" />
<glyph unicode="&#xe4;" horiz-adv-x="573" d="M313 42Q286 20 251 5T168 -10Q93 -10 51 32T8 136Q8 195 45 239T152 307T315 332H322Q326 332 331 334T337 346V363Q337 391 323 406T278 421Q257 421 235 412T200 374Q196 366 192 364T173 363L42 389Q35 391 32
396T35 421Q58 485 123 512T287 540Q380 540 432 519T505 461T527 375V27Q527 12 523 6T504 0H367Q354 0 349 10T341 35L340 42Q337 62 313 42V42ZM337 224Q337 242 322 242H318Q306 242 287 238T248 224T216 199T202 163Q202 142 217 129T259 116Q279 116 292
122T314 135Q323 143 330 151T337 171V224V224ZM252 623Q252 610 245 605T223 599H103Q90 599 86 604T81 621V722Q81 742 97 742H236Q252 742 252 724V623ZM492 623Q492 610 485 605T463 599H343Q330 599 326 604T321 621V722Q321 742 337 742H476Q492 742 492
724V623Z" />
<glyph unicode="&#xe5;" horiz-adv-x="573" d="M313 42Q286 20 251 5T168 -10Q93 -10 51 32T8 136Q8 195 45 239T152 307T315 332H322Q326 332 331 334T337 346V363Q337 391 323 406T278 421Q257 421 235 412T200 374Q196 366 192 364T173 363L42 389Q35 391 32
396T35 421Q58 485 123 512T287 540Q380 540 432 519T505 461T527 375V27Q527 12 523 6T504 0H367Q354 0 349 10T341 35L340 42Q337 62 313 42V42ZM337 224Q337 242 322 242H318Q306 242 287 238T248 224T216 199T202 163Q202 142 217 129T259 116Q279 116 292
122T314 135Q323 143 330 151T337 171V224V224ZM404 690Q404 641 370 607T287 573Q238 573 204 607T170 692Q170 724 186 749T228 790T287 805Q320 805 346 790T388 748T404 690V690ZM334 689Q334 709 320 722T286 736Q267 736 252 723T237 689Q237 670 252 655T286
640Q306 640 320 655T334 689V689Z" />
<glyph unicode="&#xe6;" horiz-adv-x="905" d="M557 229Q550 229 546 225T542 212Q542 189 550 172T572 144T604 128T645 122Q662 122 678 127T713 144T754 178Q758 182 761 182T775 179L866 142Q884 135 870 118Q834 68 798 40T718 1T618 -10Q576 -10 538 -1T468
27T410 71Q405 77 399 71Q369 42 336 24T265 -2T181 -10Q96 -10 52 32T8 143Q8 223 80 273T296 331L319 332Q325 332 331 334T337 346V363Q337 391 323 406T278 421Q257 421 235 412T200 374Q196 364 192 363T173 363L42 389Q35 391 33 402T35 421Q54 460 82 486T159
526T283 540Q350 539 395 529T469 500Q501 520 538 530T614 540Q693 540 754 506T850 409T886 254Q886 241 884 236T868 229H557V229ZM623 423Q603 423 585 414T556 384T545 333L675 332Q685 332 688 334T692 346Q692 359 685 377T663 409T623 423V423ZM337 216Q337
225 333 229T319 234L305 233Q286 232 262 223T220 198T202 156Q202 134 217 121T262 108Q281 108 298 114T326 132T337 160V216V216Z" />
<glyph unicode="&#xe7;" horiz-adv-x="556" d="M298 540Q370 540 420 514T499 448T536 370Q543 345 518 344L381 337Q367 336 364 351Q362 364 357 378T340 403T303 414Q279 414 261 399T233 352T223 265Q223 210 234 177T265 129T314 114Q355 114 374 136T413
193Q415 197 419 198T433 198L527 180Q541 177 536 157Q532 138 517 110T474 54T403 9T298 -10Q218 -10 156 24T57 120T21 263Q21 346 57 408T156 505T298 540V540ZM435 -137Q435 -164 417 -183T368 -214T302 -225Q269 -225 236 -220T175 -200Q165 -193 169 -184L186
-143Q189 -135 198 -138Q215 -147 236 -154T277 -161Q298 -161 311 -154T324 -134Q324 -116 305 -106T233 -95Q226 -95 223 -93T223 -83L261 5H342L323 -44Q319 -53 329 -53Q368 -53 391 -66T425 -98T435 -137V-137Z" />
<glyph unicode="&#xe8;" horiz-adv-x="590" d="M227 212Q227 182 240 162T277 132T330 122Q356 122 381 134T439 178Q443 182 446 182T460 179L551 142Q569 135 555 118Q519 68 483 40T403 1T303 -10Q223 -10 159 24T58 118T21 256Q21 341 59 405T161 504T299
540Q378 540 439 506T535 409T571 254Q571 241 569 236T553 229H242Q235 229 231 225T227 212V212ZM360 332Q370 332 373 334T377 346Q377 359 370 377T348 409T308 423Q288 423 270 414T241 384T230 333L360 332ZM182 739Q189 757 203 751L442 653Q456 647 450
629L435 586Q431 576 425 573T406 573L173 629Q146 636 154 661L182 739V739Z" />
<glyph unicode="&#xe9;" horiz-adv-x="590" d="M227 212Q227 182 240 162T277 132T330 122Q356 122 381 134T439 178Q443 182 446 182T460 179L551 142Q569 135 555 118Q519 68 483 40T403 1T303 -10Q223 -10 159 24T58 118T21 256Q21 341 59 405T161 504T299
540Q378 540 439 506T535 409T571 254Q571 241 569 236T553 229H242Q235 229 231 225T227 212V212ZM360 332Q370 332 373 334T377 346Q377 359 370 377T348 409T308 423Q288 423 270 414T241 384T230 333L360 332ZM449 658Q457 633 430 626L197 570Q184 567 178
570T168 583L153 626Q147 644 161 650L401 748Q415 754 422 736L449 658Z" />
<glyph unicode="&#xea;" horiz-adv-x="590" d="M227 212Q227 182 240 162T277 132T330 122Q356 122 381 134T439 178Q443 182 446 182T460 179L551 142Q569 135 555 118Q519 68 483 40T403 1T303 -10Q223 -10 159 24T58 118T21 256Q21 341 59 405T161 504T299
540Q378 540 439 506T535 409T571 254Q571 241 569 236T553 229H242Q235 229 231 225T227 212V212ZM360 332Q370 332 373 334T377 346Q377 359 370 377T348 409T308 423Q288 423 270 414T241 384T230 333L360 332ZM316 658Q306 672 301 672T282 658L236 604Q229
597 225 596T210 595H111Q102 595 102 600T108 613L220 737Q227 745 235 748T257 752H352Q363 752 369 748T380 739L491 613Q508 595 489 595H384Q375 595 369 596T357 604L316 658Z" />
<glyph unicode="&#xeb;" horiz-adv-x="590" d="M227 212Q227 182 240 162T277 132T330 122Q356 122 381 134T439 178Q443 182 446 182T460 179L551 142Q569 135 555 118Q519 68 483 40T403 1T303 -10Q223 -10 159 24T58 118T21 256Q21 341 59 405T161 504T299
540Q378 540 439 506T535 409T571 254Q571 241 569 236T553 229H242Q235 229 231 225T227 212V212ZM360 332Q370 332 373 334T377 346Q377 359 370 377T348 409T308 423Q288 423 270 414T241 384T230 333L360 332ZM266 623Q266 610 259 605T237 599H117Q104 599
100 604T95 621V722Q95 742 111 742H250Q266 742 266 724V623ZM506 623Q506 610 499 605T477 599H357Q344 599 340 604T335 621V722Q335 742 351 742H490Q506 742 506 724V623Z" />
<glyph unicode="&#xec;" horiz-adv-x="282" d="M241 29Q241 13 233 7T208 0H67Q52 0 47 6T41 25V507Q41 530 60 530H223Q241 530 241 510V29ZM26 739Q33 757 47 751L286 653Q300 647 294 629L279 586Q275 576 269 573T250 573L17 629Q-10 636 -2 661L26 739V739Z" />
<glyph unicode="&#xed;" horiz-adv-x="282" d="M241 29Q241 13 233 7T208 0H67Q52 0 47 6T41 25V507Q41 530 60 530H223Q241 530 241 510V29ZM293 658Q301 633 274 626L41 570Q28 567 22 570T12 583L-3 626Q-9 644 5 650L245 748Q259 754 266 736L293 658Z" />
<glyph unicode="&#xee;" horiz-adv-x="282" d="M241 29Q241 13 233 7T208 0H67Q52 0 47 6T41 25V507Q41 530 60 530H223Q241 530 241 510V29ZM160 658Q150 672 145 672T126 658L80 604Q73 597 69 596T54 595H-45Q-54 595 -54 600T-48 613L64 737Q71 745 79 748T101
752H196Q207 752 213 748T224 739L335 613Q352 595 333 595H228Q219 595 213 596T201 604L160 658Z" />
<glyph unicode="&#xef;" horiz-adv-x="282" d="M241 29Q241 13 233 7T208 0H67Q52 0 47 6T41 25V507Q41 530 60 530H223Q241 530 241 510V29ZM110 623Q110 610 103 605T81 599H-39Q-52 599 -56 604T-61 621V722Q-61 742 -45 742H94Q110 742 110 724V623ZM350 623Q350
610 343 605T321 599H201Q188 599 184 604T179 621V722Q179 742 195 742H334Q350 742 350 724V623Z" />
<glyph unicode="&#xf0;" horiz-adv-x="600" d="M579 282Q579 192 544 127T446 26T299 -10Q217 -10 155 24T57 118T21 252Q21 331 58 391T158 485T300 520Q303 520 303 521T302 525Q288 545 273 559T236 590L140 536Q125 528 116 543L101 567Q95 575 96 581T103
589L174 628Q155 638 135 647T92 663Q88 665 87 669T90 677L174 746Q179 751 182 751T195 750Q227 743 257 732T316 707L391 749Q401 756 409 747L430 709Q435 701 426 695L380 669Q473 604 526 503T579 282V282ZM300 118Q327 118 344 133T369 179T377 256Q377
304 369 335T344 381T300 396Q274 396 257 381T231 335T223 256Q223 209 231 179T256 133T300 118V118Z" />
<glyph unicode="&#xf1;" horiz-adv-x="604" d="M67 0Q41 0 41 25V507Q41 530 60 530H221Q239 530 239 510V465Q239 459 242 457T252 461Q273 484 298 502T351 530T411 540Q481 540 524 496T568 378V30Q568 0 538 0H391Q378 0 373 5T368 25V351Q368 374 354 386T315
399Q300 399 287 394T262 377T241 349V29Q241 0 208 0H67V0ZM488 639Q472 628 446 619T388 609Q359 609 333 617T281 632T226 640Q205 640 190 635T155 615Q147 609 142 610T132 623L115 677Q113 685 113 691T123 708Q142 724 164 736T221 749Q253 749 282 741T337
724T387 715Q411 715 431 724T464 743Q472 748 479 747T488 734L502 669Q506 652 488 639V639Z" />
<glyph unicode="&#xf2;" horiz-adv-x="600" d="M299 -10Q217 -10 155 25T57 121T21 262Q21 346 58 408T158 505T300 540Q384 540 446 504T544 406T579 262Q579 183 544 122T445 25T299 -10V-10ZM300 118Q327 118 344 133T369 182T377 266Q377 319 369 352T344
400T300 416Q274 416 257 401T231 352T223 266Q223 214 231 182T256 134T300 118V118ZM181 739Q188 757 202 751L441 653Q455 647 449 629L434 586Q430 576 424 573T405 573L172 629Q145 636 153 661L181 739V739Z" />
<glyph unicode="&#xf3;" horiz-adv-x="600" d="M299 -10Q217 -10 155 25T57 121T21 262Q21 346 58 408T158 505T300 540Q384 540 446 504T544 406T579 262Q579 183 544 122T445 25T299 -10V-10ZM300 118Q327 118 344 133T369 182T377 266Q377 319 369 352T344
400T300 416Q274 416 257 401T231 352T223 266Q223 214 231 182T256 134T300 118V118ZM448 658Q456 633 429 626L196 570Q183 567 177 570T167 583L152 626Q146 644 160 650L400 748Q414 754 421 736L448 658Z" />
<glyph unicode="&#xf4;" horiz-adv-x="600" d="M299 -10Q217 -10 155 25T57 121T21 262Q21 346 58 408T158 505T300 540Q384 540 446 504T544 406T579 262Q579 183 544 122T445 25T299 -10V-10ZM300 118Q327 118 344 133T369 182T377 266Q377 319 369 352T344
400T300 416Q274 416 257 401T231 352T223 266Q223 214 231 182T256 134T300 118V118ZM315 658Q305 672 300 672T281 658L235 604Q228 597 224 596T209 595H110Q101 595 101 600T107 613L219 737Q226 745 234 748T256 752H351Q362 752 368 748T379 739L490 613Q507
595 488 595H383Q374 595 368 596T356 604L315 658Z" />
<glyph unicode="&#xf5;" horiz-adv-x="600" d="M299 -10Q217 -10 155 25T57 121T21 262Q21 346 58 408T158 505T300 540Q384 540 446 504T544 406T579 262Q579 183 544 122T445 25T299 -10V-10ZM300 118Q327 118 344 133T369 182T377 266Q377 319 369 352T344
400T300 416Q274 416 257 401T231 352T223 266Q223 214 231 182T256 134T300 118V118ZM484 639Q468 628 442 619T384 609Q355 609 329 617T277 632T222 640Q201 640 186 635T151 615Q143 609 138 610T128 623L111 677Q109 685 109 691T119 708Q138 724 160 736T217
749Q249 749 278 741T333 724T383 715Q407 715 427 724T460 743Q468 748 475 747T484 734L498 669Q502 652 484 639V639Z" />
<glyph unicode="&#xf6;" horiz-adv-x="600" d="M299 -10Q217 -10 155 25T57 121T21 262Q21 346 58 408T158 505T300 540Q384 540 446 504T544 406T579 262Q579 183 544 122T445 25T299 -10V-10ZM300 118Q327 118 344 133T369 182T377 266Q377 319 369 352T344
400T300 416Q274 416 257 401T231 352T223 266Q223 214 231 182T256 134T300 118V118ZM265 623Q265 610 258 605T236 599H116Q103 599 99 604T94 621V722Q94 742 110 742H249Q265 742 265 724V623ZM505 623Q505 610 498 605T476 599H356Q343 599 339 604T334 621V722Q334
742 350 742H489Q505 742 505 724V623Z" />
<glyph unicode="&#xf7;" horiz-adv-x="602" d="M397 87Q397 61 367 61H231Q207 61 207 83V223Q207 243 224 243H381Q397 243 397 225V87ZM562 331Q562 303 529 303H66Q51 303 46 309T40 328V421Q40 444 59 444H544Q562 444 562 424V331ZM397 530Q397 504 367 504H231Q207
504 207 527V666Q207 686 224 686H381Q397 686 397 668V530Z" />
<glyph unicode="&#xf8;" horiz-adv-x="604" d="M94 12Q82 1 72 1T51 12L32 32Q12 54 28 69L513 520Q532 537 544 525L578 489Q592 475 577 462L94 12ZM299 -10Q217 -10 155 25T57 121T21 262Q21 346 58 408T158 505T300 540Q384 540 446 504T544 406T579 262Q579
183 544 122T445 25T299 -10V-10ZM300 118Q327 118 344 133T369 182T377 266Q377 319 369 352T344 400T300 416Q274 416 257 401T231 352T223 266Q223 214 231 182T256 134T300 118V118Z" />
<glyph unicode="&#xf9;" horiz-adv-x="601" d="M285 130Q308 130 327 142T360 171V501Q360 530 393 530H536Q562 530 562 504L558 22Q558 0 539 0H381Q363 0 363 20V64Q363 70 360 71T351 68Q317 28 276 9T185 -10Q142 -10 109 9T56 66T36 157V500Q36 530 67 530H213Q236
530 236 504V179Q236 156 249 143T285 130V130ZM180 739Q187 757 201 751L440 653Q454 647 448 629L433 586Q429 576 423 573T404 573L171 629Q144 636 152 661L180 739V739Z" />
<glyph unicode="&#xfa;" horiz-adv-x="601" d="M285 130Q308 130 327 142T360 171V501Q360 530 393 530H536Q562 530 562 504L558 22Q558 0 539 0H381Q363 0 363 20V64Q363 70 360 71T351 68Q317 28 276 9T185 -10Q142 -10 109 9T56 66T36 157V500Q36 530 67 530H213Q236
530 236 504V179Q236 156 249 143T285 130V130ZM447 658Q455 633 428 626L195 570Q182 567 176 570T166 583L151 626Q145 644 159 650L399 748Q413 754 420 736L447 658Z" />
<glyph unicode="&#xfb;" horiz-adv-x="601" d="M285 130Q308 130 327 142T360 171V501Q360 530 393 530H536Q562 530 562 504L558 22Q558 0 539 0H381Q363 0 363 20V64Q363 70 360 71T351 68Q317 28 276 9T185 -10Q142 -10 109 9T56 66T36 157V500Q36 530 67 530H213Q236
530 236 504V179Q236 156 249 143T285 130V130ZM314 658Q304 672 299 672T280 658L234 604Q227 597 223 596T208 595H109Q100 595 100 600T106 613L218 737Q225 745 233 748T255 752H350Q361 752 367 748T378 739L489 613Q506 595 487 595H382Q373 595 367 596T355
604L314 658Z" />
<glyph unicode="&#xfc;" horiz-adv-x="601" d="M285 130Q308 130 327 142T360 171V501Q360 530 393 530H536Q562 530 562 504L558 22Q558 0 539 0H381Q363 0 363 20V64Q363 70 360 71T351 68Q317 28 276 9T185 -10Q142 -10 109 9T56 66T36 157V500Q36 530 67 530H213Q236
530 236 504V179Q236 156 249 143T285 130V130ZM264 623Q264 610 257 605T235 599H115Q102 599 98 604T93 621V722Q93 742 109 742H248Q264 742 264 724V623ZM504 623Q504 610 497 605T475 599H355Q342 599 338 604T333 621V722Q333 742 349 742H488Q504 742 504
724V623Z" />
<glyph unicode="&#xfd;" horiz-adv-x="589" d="M102 -165Q71 -165 59 -161T46 -143V-41Q46 -35 52 -29T74 -22H145Q162 -22 176 -17T198 -5T210 12T210 31L16 501Q12 512 17 521T35 530H204Q213 530 220 524T230 510L315 270Q318 261 323 261T332 270L418 510Q422
518 428 524T444 530H556Q568 530 573 521T573 501L378 31Q352 -32 327 -70T270 -129T199 -157T102 -165V-165ZM474 658Q482 633 455 626L222 570Q209 567 203 570T193 583L178 626Q172 644 186 650L426 748Q440 754 447 736L474 658Z" />
<glyph unicode="&#xfe;" horiz-adv-x="614" d="M216 742Q242 742 242 718V485Q242 479 247 479T257 483Q277 501 297 513T341 533T397 540Q453 540 497 511T567 421T593 267Q593 166 566 105T492 17T390 -10Q356 -10 325 0T262 41Q250 52 246 52T241 36V-145Q241
-165 223 -165H60Q41 -165 41 -143V716Q41 729 46 735T68 742H216V742ZM241 151Q254 133 270 122T311 111Q336 111 354 125T381 174T391 273Q391 331 382 362T355 406T311 419Q292 419 276 412T251 392T241 363V151V151Z" />
<glyph unicode="&#xff;" horiz-adv-x="589" d="M102 -165Q71 -165 59 -161T46 -143V-41Q46 -35 52 -29T74 -22H145Q162 -22 176 -17T198 -5T210 12T210 31L16 501Q12 512 17 521T35 530H204Q213 530 220 524T230 510L315 270Q318 261 323 261T332 270L418 510Q422
518 428 524T444 530H556Q568 530 573 521T573 501L378 31Q352 -32 327 -70T270 -129T199 -157T102 -165V-165ZM291 623Q291 610 284 605T262 599H142Q129 599 125 604T120 621V722Q120 742 136 742H275Q291 742 291 724V623ZM531 623Q531 610 524 605T502 599H382Q369
599 365 604T360 621V722Q360 742 376 742H515Q531 742 531 724V623Z" />
<glyph unicode="&#x2013;" horiz-adv-x="602" d="M562 211Q562 183 529 183H66Q51 183 46 189T40 208V300Q40 323 59 323H544Q562 323 562 303V211Z" />
<glyph unicode="&#x2014;" horiz-adv-x="928" d="M888 211Q888 183 855 183H66Q51 183 46 189T40 208V300Q40 323 59 323H870Q888 323 888 303V211Z" />
<glyph unicode="&#x2018;" horiz-adv-x="253" d="M193 742Q202 742 206 735T207 720L165 618Q160 605 161 598T174 589L190 587Q204 586 209 581T214 564V432Q214 411 196 411H49Q32 411 32 429V556Q32 564 36 570L136 721Q143 732 155 737T177 742H193V742Z" />
<glyph unicode="&#x2019;" horiz-adv-x="253" d="M60 411Q51 411 47 418T46 433L88 535Q93 549 92 555T79 564L63 566Q50 568 45 572T39 589V721Q39 742 57 742H204Q221 742 221 724V597Q221 589 217 583L117 432Q110 422 99 417T76 411H60V411Z" />
<glyph unicode="&#x201a;" horiz-adv-x="253" d="M60 -155Q51 -155 47 -148T46 -133L88 -31Q93 -17 92 -11T79 -2L63 0Q50 2 45 6T39 23V155Q39 176 57 176H204Q221 176 221 158V31Q221 23 217 17L117 -134Q110 -144 99 -149T76 -155H60V-155Z" />
<glyph unicode="&#x201c;" horiz-adv-x="509" d="M305 411Q288 411 288 429V556Q288 564 292 570L392 721Q399 732 411 737T433 742H449Q458 742 462 735T463 720L421 618Q416 605 417 598T430 589L446 587Q460 586 465 581T470 564V432Q470 411 452 411H305V411ZM49
411Q32 411 32 429V556Q32 564 36 570L136 721Q143 732 155 737T177 742H193Q202 742 206 735T207 720L165 618Q160 605 161 598T174 589L190 587Q204 586 209 581T214 564V432Q214 411 196 411H49V411Z" />
<glyph unicode="&#x201d;" horiz-adv-x="514" d="M316 411Q307 411 303 418T302 433L344 535Q349 549 348 555T335 564L319 566Q306 568 301 572T295 589V721Q295 742 313 742H460Q477 742 477 724V597Q477 589 473 583L373 432Q366 422 355 417T332 411H316V411ZM60
411Q51 411 47 418T46 433L88 535Q93 549 92 555T79 564L63 566Q50 568 45 572T39 589V721Q39 742 57 742H204Q221 742 221 724V597Q221 589 217 583L117 432Q110 422 99 417T76 411H60V411Z" />
<glyph unicode="&#x201e;" horiz-adv-x="514" d="M316 -155Q307 -155 303 -148T302 -133L344 -31Q349 -17 348 -11T335 -2L319 0Q306 2 301 6T295 23V155Q295 176 313 176H460Q477 176 477 158V31Q477 23 473 17L373 -134Q366 -144 355 -149T332 -155H316V-155ZM60
-155Q51 -155 47 -148T46 -133L88 -31Q93 -17 92 -11T79 -2L63 0Q50 2 45 6T39 23V155Q39 176 57 176H204Q221 176 221 158V31Q221 23 217 17L117 -134Q110 -144 99 -149T76 -155H60V-155Z" />
<glyph unicode="&#x2022;" horiz-adv-x="357" d="M176 223Q134 223 99 244T43 300T22 377Q22 420 43 454T99 510T176 531Q219 531 253 510T309 455T330 377Q330 335 309 300T254 244T176 223V223Z" />
<glyph unicode="&#x2039;" horiz-adv-x="305" d="M254 73Q258 60 238 60H165Q154 60 149 70L57 235Q44 256 56 278L149 453Q153 460 156 461T166 463H241Q248 463 252 459T253 447L196 270Q192 257 196 244L254 73Z" />
<glyph unicode="&#x203a;" horiz-adv-x="305" d="M109 244Q113 257 109 270L52 447Q49 455 53 459T64 463H139Q145 463 148 462T156 453L249 278Q261 256 248 235L156 70Q151 60 140 60H67Q47 60 51 73L109 244V244Z" />
</font>
</defs>
</svg>
